<?xml version="1.0" standalone="no"?>
<!DOCTYPE svg PUBLIC "-//W3C//DTD SVG 1.1//EN" "http://www.w3.org/Graphics/SVG/1.1/DTD/svg11.dtd" >
<svg xmlns="http://www.w3.org/2000/svg">
<metadata>
This is a custom SVG webfont generated by Font Squirrel.
Designer    : Andrew Paglinawan
Foundry     : Andrew Paglinawan
</metadata>
<defs>
<font id="webfontijreB3Ak" horiz-adv-x="430" >
<font-face units-per-em="1000" ascent="800" descent="-200" />
<missing-glyph horiz-adv-x="300" />
<glyph unicode=" "  horiz-adv-x="300" />
<glyph unicode="&#x09;" horiz-adv-x="300" />
<glyph unicode="&#xa0;" horiz-adv-x="300" />
<glyph unicode="!" horiz-adv-x="252" d="M267 701q23 0 37 -17q10 -12 10 -29q0 -5 -1 -10l-65 -370q-5 -23 -24 -39.5t-42 -16.5t-36 17q-10 12 -10 29q0 5 1 10l65 370q4 23 23 39.5t42 16.5zM167 133q23 0 37 -16q10 -12 10 -29q0 -5 -1 -10l-4 -22q-4 -23 -23 -39t-42 -16t-36 16q-11 12 -11 29q0 5 1 10 l4 22q4 22 23 38.5t42 16.5z" />
<glyph unicode="&#x22;" horiz-adv-x="410" d="M289 433l17 214q2 24 17.5 40t39.5 16h40q14 0 23 -9t9 -24q0 -6 -4 -22l-73 -222q-11 -31 -36 -31q-15 0 -24.5 10.5t-8.5 27.5zM69 433l18 214q2 24 17.5 40t39.5 16h39q15 0 24 -9t9 -24q0 -6 -4 -22l-73 -222q-11 -31 -36 -31q-15 0 -25 10.5t-9 27.5z" />
<glyph unicode="#" horiz-adv-x="700" d="M125 56l18 105h-46q-22 0 -37 15t-15 37q0 21 15 36.5t37 15.5h64l30 174h-58q-21 0 -36.5 15.5t-15.5 36.5t15.5 36.5t36.5 15.5h76l20 119q3 19 17.5 31t34.5 12q24 0 39 -19q13 -15 13 -34v-8l-18 -101h157l20 119q3 19 18 31t35 12q24 0 39 -19q13 -15 13 -33 q0 -4 -1 -9l-17 -101h46q21 0 36.5 -15t15.5 -37q0 -21 -15.5 -36.5t-36.5 -15.5h-64l-30 -174h57q22 0 37 -15t15 -37q0 -21 -15 -36.5t-37 -15.5h-75l-21 -123q-3 -19 -17.5 -31t-34.5 -12q-24 0 -40 19q-13 14 -13 33q0 4 1 9l19 105h-157l-21 -123q-3 -18 -17.5 -30.5 t-35.5 -12.5q-24 0 -40 18q-12 14 -12 33q0 5 1 10zM268 265h156l30 174h-156z" />
<glyph unicode="$" horiz-adv-x="632" d="M401 720q3 18 18 30.5t33 12.5t28 -13q9 -9 9 -22q0 -4 -1 -8l-4 -22q81 -10 145 -55q23 -13 23 -38q0 -5 -1 -10q-4 -23 -23.5 -39t-42.5 -16q-15 0 -28 9q-50 33 -96 44l-34 -192q110 -29 153 -77q31 -37 31 -91q0 -18 -3 -38q-14 -81 -81.5 -133.5t-165.5 -61.5 l-11 -60q-3 -18 -17.5 -30.5t-32.5 -12.5t-29 13q-9 9 -9 23q0 3 1 7l11 62q-110 12 -191 78q-20 14 -20 39q0 4 1 9q5 23 23.5 39t41.5 16q18 0 31 -11q65 -54 136 -67l35 197q-107 29 -150 76q-32 35 -32 89q0 20 4 41q14 80 81 131.5t163 59.5zM489 188q2 9 2 17 q0 22 -13 39q-18 21 -71 39l-32 -182q100 11 114 87zM273 515q-2 -9 -2 -17q0 -22 13 -37q16 -21 68 -39l31 177q-47 -4 -76 -27t-34 -57z" />
<glyph unicode="&#x26;" horiz-adv-x="696" d="M571 447q7 1 13 1q15 0 28 -8q17 -13 18 -35v-9q0 -14 -2 -31q-10 -61 -61 -94q-6 -5 -11 -7l-3 -24q-18 -100 -100.5 -170t-182.5 -70t-158 70q-44 54 -44 126q0 21 4 44q18 106 109 177q-13 31 -13 64q0 16 3 33q13 77 77 131.5t141 54.5t122 -54q34 -42 34 -97 q0 -17 -3 -35q-4 -23 -23 -39t-42 -16t-36 16q-10 12 -10 29q0 5 1 10q1 7 1 13q0 23 -14 40q-18 22 -49 22t-57 -21.5t-32 -53.5q-1 -7 -1 -14q0 -30 22 -47q17 -13 17 -35q0 -21 -14 -39h-1l-2 -4q-5 -5 -13 -11l-4 -2q-1 0 -1 -1l-2 -1q-4 -2 -5 -3q-36 -16 -61.5 -47.5 t-32.5 -69.5q-2 -13 -2 -25q0 -37 23 -66q32 -38 85 -38q54 0 98.5 38t54.5 91q0 1 0.5 3t0.5 3q-58 0 -80 -19q-9 -8 -12 -22q-1 -5 -1 -10q1 -4 1 -7q0 -18 -13 -35q-14 -20 -37 -27q-5 -2 -16 -2q-18 0 -31 10.5t-15 28.5q-2 5 -2 13q0 12 4 29q9 60 59 101q62 51 165 51 q5 0 16 -0.5t17 -0.5h2q9 0 12 1t3 2q2 0 2 6q1 4 1 19q0 21 14 39q16 19 39 24z" />
<glyph unicode="'" horiz-adv-x="230" d="M69 433l18 214q2 24 17.5 40t39.5 16h39q15 0 24.5 -9t9.5 -24q0 -6 -4 -22l-73 -222q-11 -31 -37 -31q-15 0 -25 10.5t-9 27.5z" />
<glyph unicode="(" d="M148 -56q-38 35 -56 96q-14 52 -14 118t14 147q21 121 61 206q49 104 122 154q58 40 127 40q26 0 41 -19q11 -13 11 -31q0 -6 -1 -13q-5 -26 -26.5 -45t-47.5 -19q-25 0 -44 -13q-22 -14 -44 -49q-50 -76 -72 -211q-13 -67 -13 -122q0 -26 3 -49q7 -67 34 -89 q14 -13 40 -14q26 0 41 -19q11 -13 11 -31q0 -6 -1 -13q-4 -26 -26 -44.5t-48 -18.5h-2q-66 0 -110 39z" />
<glyph unicode=")" d="M371 666q38 -35 56 -96q14 -52 14.5 -118t-14.5 -147q-21 -121 -61 -206q-49 -104 -122 -154q-58 -40 -127 -40q-26 0 -41 19q-11 13 -11 31q0 7 1 13q5 26 26.5 45t47.5 19q25 0 44 13q22 14 44 49q50 76 72 211q13 67 13 122q0 26 -3 49q-7 67 -34 89q-14 13 -40 14 q-26 0 -41 19q-11 13 -11 31q0 6 1 13q4 26 26 44.5t48 18.5h2q66 0 110 -39z" />
<glyph unicode="*" d="M349 623q-3 -20 -27 -30l-71 -27l61 -28q17 -7 17 -24v-6q-2 -13 -13.5 -22t-23.5 -9q-11 0 -21 10l-48 42l-3 -66q-1 -15 -11 -25.5t-25 -10.5t-21 10t-1 26l20 66l-63 -42q-13 -10 -24 -10q-13 0 -21 9q-5 8 -5 18v5q4 21 27 29l70 28l-60 27q-17 8 -17 25v6 q2 12 13.5 21t24.5 9q10 0 20 -10l48 -42l3 66q1 16 11 26.5t25 10.5q14 0 20.5 -10.5t1.5 -25.5l-20 -67l63 42q13 10 25 10t20 -10q6 -6 6 -15q0 -3 -1 -6z" />
<glyph unicode="+" horiz-adv-x="620" d="M413 401q21 0 33 -15q10 -12 10 -28q0 -5 -1 -10q-4 -22 -23.5 -38t-40.5 -16h-86l-18 -86q-5 -21 -24 -37t-41 -16t-34 16q-9 11 -9 25q0 6 1 12l18 86h-86q-22 0 -34 16q-9 12 -9 27q0 5 1 11q4 22 23 37.5t41 15.5h86l17 86q5 21 23.5 37t40.5 16t35 -16q9 -12 9 -26 q0 -5 -1 -11l-17 -86h86z" />
<glyph unicode="," horiz-adv-x="230" d="M151 58l1 -6v-13q0 -32 -16.5 -63.5t-60.5 -42.5h-3q-12 0 -15 12q-3 13 12 18q31 7 45 39q-3 -1 -14 -1q-19 0 -32.5 14t-13.5 34t13.5 34.5t32.5 14.5q18 0 31.5 -11t17.5 -28q0 -1 2 -1z" />
<glyph unicode="-" horiz-adv-x="408" d="M288 308h-186q-15 0 -25.5 10.5t-10.5 25.5t10.5 25.5t25.5 10.5h186q15 0 25 -10.5t10 -25.5t-10 -25.5t-25 -10.5z" />
<glyph unicode="." horiz-adv-x="230" d="M181 50q0 -20 -14.5 -35t-34.5 -15t-35 15t-15 35t15 34.5t35 14.5t34.5 -14.5t14.5 -34.5z" />
<glyph unicode="/" horiz-adv-x="500" d="M36 4q-22 8 -30 30q-5 10 -5 20q0 11 5 22l245 583q9 21 30 29q10 5 21 5t22 -5q20 -8 28 -30q5 -10 5 -20q0 -11 -5 -21l-245 -584q-14 -33 -51 -33q-12 0 -20 4z" />
<glyph unicode="0" horiz-adv-x="710" d="M395 699q56 0 99 -30t67 -81q33 -66 33 -150q0 -42 -8 -89q-24 -139 -109 -239q-92 -111 -205 -111q-56 0 -99 30t-67 81q-33 66 -33 150q0 42 8 89q24 139 109 239q94 111 205 111zM396 172q61 71 80 177q6 36 6 67q0 64 -24 111q-30 61 -79 61h-3h-3q-50 0 -102 -61 q-61 -73 -79 -178q-7 -36 -7 -69q0 -61 24 -108q30 -62 82 -62t105 62z" />
<glyph unicode="1" horiz-adv-x="335" d="M286 653v-6v-1q0 -2 -1 -2l-104 -590q-4 -23 -23 -39t-42 -16t-36 17q-10 12 -10 28q0 5 1 10l87 493l-44 -24q-16 -8 -30 -8q-30 0 -43 27q-4 9 -4 19q0 11 5 23q10 23 32 34l136 73q0 1 1 1t2 1q4 2 6 2q1 1 3 1t3 1q1 0 2.5 0.5t2.5 0.5q2 1 6 1h4h1q4 0 6 -1h5 q1 0 2.5 -1t2.5 -1t2 -1t2 -1q4 -2 5 -2l2 -1q2 -1 2 -2l4 -4l3 -3q1 0 1 -2t1 -2q1 -1 2 -2.5t1 -2.5l1 -1q0 -2 1 -3v-3l1 -2q0 -1 0.5 -3t0.5 -3v-5z" />
<glyph unicode="2" horiz-adv-x="590" d="M474 109q23 0 36 -17q11 -12 11 -29q0 -5 -1 -10q-5 -23 -24 -39t-41 -16h-353h-2h-2q-25 0 -37 18q-9 12 -9 28q0 6 1 12q5 23 25 39l343 267q49 39 59 96q2 12 2 24q0 34 -20 63q-32 42 -88 42q-50 0 -93 -33l-36 -28q-18 -15 -39 -15q-2 0 -4 1q-22 1 -35 18 q-8 11 -8 25q0 7 1 14q6 23 25 39l36 28q80 62 172 62q106 0 164 -79q38 -52 38 -117q0 -21 -4 -44q-18 -106 -110 -178l-219 -171h212z" />
<glyph unicode="3" horiz-adv-x="610" d="M441 473q38 -19 62 -49q46 -55 46 -129q0 -22 -4 -46q-18 -102 -104 -176q-87 -73 -189 -73t-163 73q-10 13 -10 30q0 5 1 10q4 23 24 40t43 17t37 -17q32 -39 88 -39q55 0 103 39q46 40 56 96q2 13 2 26q0 39 -24 69q-31 38 -88 40h-2q-23 0 -37 18l-1 1q-10 13 -10 31 q0 4 1 9q3 23 22 40l120 104h-161q-24 0 -37 17q-11 12 -11 29q0 6 1 11q4 23 23.5 39.5t43.5 16.5h295q23 0 36 -16q11 -13 11 -30q0 -5 -1 -10q-1 -11 -11 -27q-8 -10 -13 -14z" />
<glyph unicode="4" horiz-adv-x="664" d="M555 239q23 0 36 -17q10 -12 10 -28q0 -5 -1 -10q-4 -23 -23 -39.5t-42 -16.5h-10l-13 -75q-4 -23 -23 -39t-42 -16t-37 16q-10 12 -10 29q0 5 1 10l14 75h-313h-2q-19 0 -32 13q-14 12 -14 32v5q2 23 19 40l451 459q0 2 2 2l5 5q1 0 2 1l2 2l6 3q2 2 4 2l6 3 q1 0 2.5 0.5t2.5 0.5q2 1 6 1q2 1 6 1h2h3q3 0 5 -1q4 0 5 -1h3l2 -1q1 -1 2.5 -1t2.5 -1l2 -2q1 -1 2 -1t2 -1l2 -2q1 0 1 -0.5t1 -0.5l2 -2q1 0 2 -2l1 -2l1 -2q1 -2 2 -2q0 -1 2 -5q1 -1 1 -2q1 -2 1 -3q0 -3 1 -4v-6q1 -1 1 -4q0 -1 -0.5 -3.5t-0.5 -3.5v-2l-71 -404h10 zM235 239h199l44 247z" />
<glyph unicode="5" horiz-adv-x="605" d="M537 588h-246l-30 -99q35 9 69 9q102 0 162 -73q46 -55 46 -129q0 -22 -4 -46q-18 -103 -104 -176q-87 -73 -189 -73q-104 0 -162 73q-11 13 -11 30q0 5 1 10q4 23 24 40q19 16 42.5 16t37.5 -16q31 -38 88 -40q57 2 103 40q46 40 57 96q2 13 2 25q0 40 -25 70 q-33 39 -88 39q-56 0 -103 -39q-19 -17 -43 -17t-37 17q-4 4 -8 14v2q-1 1 -1 3t-1 3v6v2q-1 7 2 17l76 258q8 27 32 40q1 0 2 1l2 2l4 2q12 6 27 6h295q23 0 37 -17q10 -12 10 -29q0 -6 -1 -11q-4 -23 -23.5 -39.5t-42.5 -16.5z" />
<glyph unicode="6" horiz-adv-x="642" d="M362 487q101 0 160 -71q44 -55 44 -127q0 -21 -4 -45q-18 -101 -101.5 -171.5t-183.5 -70.5q-94 0 -153 62q-51 55 -51 134q0 11 1 22l-1 1q4 38 8 58q20 110 71 205q64 114 159 171q74 44 159 47h3q21 0 34 -14q12 -13 12 -31q0 -4 -1 -8q-3 -23 -21.5 -39.5 t-41.5 -17.5q-53 -3 -99 -29q-42 -26 -76 -70q-6 -8 -18 -26q53 20 100 20zM296 113q55 0 100 38.5t55 92.5q2 13 2 26q0 38 -23 68q-32 38 -87 38t-100.5 -38.5t-55.5 -93.5q-2 -12 -2 -23q0 -40 25 -69q31 -39 86 -39z" />
<glyph unicode="7" horiz-adv-x="587" d="M536 654q0 -13 -4 -22q-1 -6 -5 -11l-352 -589q-21 -34 -57 -34q-7 0 -21 4q-19 9 -24 30q-1 6 -1 12q0 16 9 31l306 512h-258q-23 0 -37 17q-10 12 -10 29q0 5 1 10q5 23 24 39t41 16h341q8 0 12 -1q10 -1 18 -8l3 -3l4 -4q1 -2 3 -4q2 -4 2 -5l1 -1q0 -2 1 -2 q1 -1 1 -3t1 -3v-5q1 -1 1 -5z" />
<glyph unicode="8" horiz-adv-x="630" d="M484 435q43 -33 62 -85q13 -35 13 -74q0 -19 -3 -40q-17 -98 -99.5 -168t-181.5 -70q-98 0 -156 70q-44 53 -44 123q0 22 4 45q10 61 48 113.5t93 85.5q-18 31 -18 68q0 14 3 30q12 68 69 116.5t125 48.5t108 -48q31 -38 31 -87q0 -14 -3 -30q-11 -56 -51 -98zM379 589 q-23 0 -42 -16.5t-24 -39.5q-1 -5 -1 -10q0 -16 11 -29q14 -16 37 -17q23 1 42 17t24 39q1 5 1 10q0 17 -11 29q-13 17 -37 17zM294 107q54 0 98.5 38t54.5 91q2 12 2 23q0 40 -24 69q-31 38 -85 38t-98.5 -38t-54.5 -92q-2 -12 -2 -23q0 -38 25 -68q31 -38 84 -38z" />
<glyph unicode="9" horiz-adv-x="642" d="M578 482v-2q-4 -38 -8 -58q-18 -109 -71 -205q-65 -115 -159 -171q-75 -44 -158 -47h-3q-22 0 -35 15q-12 13 -12 30q0 4 1 8q4 23 22.5 40t41.5 18q52 1 99 29q41 23 75 70q10 11 18 26q-48 -20 -100 -20q-100 0 -159 71q-45 54 -45 127q0 21 4 44q18 100 101.5 171 t184.5 71q93 0 151 -63q53 -55 53 -135q0 -9 -1 -19zM309 325q55 0 100 38.5t55 93.5q2 13 2 25q0 38 -24 68q-32 38 -87 38t-100 -38.5t-55 -92.5q-2 -13 -2 -25q0 -39 24 -68q32 -39 87 -39z" />
<glyph unicode=":" horiz-adv-x="240" d="M190 50q-3 -20 -20.5 -35t-37.5 -15q-19 0 -32 15q-10 12 -10 27q0 4 1 8q4 20 21.5 34.5t37.5 14.5t32 -15q9 -10 9 -24q0 -5 -1 -10zM264 473q-4 -20 -21 -35t-37 -15t-32 15q-10 12 -10 26q0 4 1 9q4 20 21.5 34.5t37.5 14.5t32 -14q9 -11 9 -25q0 -5 -1 -10z" />
<glyph unicode=";" horiz-adv-x="240" d="M257 471q-4 -20 -21 -35t-37 -15t-33 15q-9 12 -9 26q0 4 1 9q4 20 22 34.5t38 14.5t32 -14q8 -11 8 -25q0 -5 -1 -10zM175 60q0 -7 -2 -19q-4 -19 -12 -37.5t-31 -40t-55 -28.5h-3q-12 0 -12 12q-2 12 15 18q33 7 53 39q-4 -1 -15 -1q-19 0 -29 14q-8 10 -8 23q0 5 1 11 q4 20 20 34.5t35 14.5q18 0 29.5 -11t12.5 -28q0 -1 1 -1z" />
<glyph unicode="&#x37e;" horiz-adv-x="240" d="M257 471q-4 -20 -21 -35t-37 -15t-33 15q-9 12 -9 26q0 4 1 9q4 20 22 34.5t38 14.5t32 -14q8 -11 8 -25q0 -5 -1 -10zM175 60q0 -7 -2 -19q-4 -19 -12 -37.5t-31 -40t-55 -28.5h-3q-12 0 -12 12q-2 12 15 18q33 7 53 39q-4 -1 -15 -1q-19 0 -29 14q-8 10 -8 23q0 5 1 11 q4 20 20 34.5t35 14.5q18 0 29.5 -11t12.5 -28q0 -1 1 -1z" />
<glyph unicode="&#x3c;" horiz-adv-x="620" d="M512 682q12 -15 12 -34v-11q-5 -26 -27 -45l-282 -241l197 -241q12 -15 12 -34q0 -5 -2 -12q-4 -26 -26 -45q-22 -18 -49 -18q-26 0 -42 19l-233 286q-4 4 -5 8q-1 1 -1 2t-3 8q-1 1 -1 3q-1 2 -1 7l-1 2v3q0 1 0.5 2.5t0.5 2.5v7q0 1 0.5 2t0.5 2q0 2 1 4.5t2 3.5 q0 2 1 3q2 6 4 9l1 1q6 11 17 20l334 286q22 19 48.5 19t41.5 -19z" />
<glyph unicode="=" horiz-adv-x="620" d="M301 259h-186q-15 0 -25.5 10.5t-10.5 25.5t10.5 25.5t25.5 10.5h186q15 0 25 -10.5t10 -25.5t-10 -25.5t-25 -10.5zM115 372q-15 0 -25.5 10t-10.5 25q0 14 10.5 24.5t25.5 10.5h186q15 0 25 -10.5t10 -24.5q0 -15 -10 -25t-25 -10h-186z" />
<glyph unicode="&#x3e;" horiz-adv-x="620" d="M562 357q0 -4 -1 -6q0 -3 -1 -4q0 -4 -2 -8v-1l-1 -2l-3 -5q-1 -3 -2 -4l-1 -2q-5 -8 -7 -9l-1 -2l-8 -8l-335 -286q-20 -19 -48 -19q-27 0 -42 18q-12 14 -12 33q0 6 1 12q5 27 27 46l282 241l-197 241q-12 14 -12 33q0 6 1 12q5 26 27 45t48.5 19t41.5 -19l234 -286 q4 -6 5 -9l1 -1q2 -6 3 -8v-1q1 -1 1 -2q0 -5 1 -7v-5v-6z" />
<glyph unicode="?" horiz-adv-x="534" d="M165 122q21 0 33 -15q10 -11 10 -27q0 -5 -1 -10l-3 -19q-4 -22 -21.5 -37t-39.5 -15q-21 0 -33 15q-10 11 -10 27q0 5 1 10l3 19q4 22 21.5 37t39.5 15zM266 699q92 0 145 -65q41 -50 41 -115q0 -20 -4 -41q-13 -78 -71.5 -138t-135.5 -77l-13 -69q-4 -22 -21.5 -36.5 t-38.5 -14.5t-34 15q-9 10 -9 26q0 5 1 10l19 110l1 1v1v2q4 21 21.5 36t38.5 15q49 0 90 34.5t50 84.5q2 11 2 21q0 36 -22 63q-29 34 -78 34q-69 0 -113 -59q-14 -18 -35 -23q-7 -2 -14 -2q-13 0 -24 7q-17 10 -19 31v5q0 17 12 34q38 50 94.5 80t116.5 30z" />
<glyph unicode="@" horiz-adv-x="980" d="M499 702q145 0 229 -102q65 -79 65 -182q0 -32 -6 -66q-14 -83 -67 -160v-1l-1 -1l-5 -6q-4 -5 -12 -12l-15 -16q-42 -38 -86 -48q-12 -4 -27 -4q-23 0 -41.5 11t-27.5 27q-7 13 -11 30q-48 -23 -93 -23q-81 0 -127 61q-35 44 -35 103q0 19 4 39q15 82 81 142 q68 61 149 61t127 -61q35 -44 35 -103q0 -19 -4 -39q0 -3 -2 -7v-4l-21 -119q1 0 8 5q13 13 15 17q34 48 45 108q4 23 4 44q0 71 -44 125q-58 70 -157 70t-181.5 -70t-99.5 -169q-4 -23 -4 -44q0 -71 44 -125q58 -70 157 -70q33 0 60 7q7 2 13 2q15 0 28 -8q18 -12 19 -34 v-5q0 -19 -13 -37q-15 -20 -38 -25q-46 -11 -89 -11q-145 0 -229 102q-65 79 -65 182q0 32 6 66q26 145 146.5 247.5t265.5 102.5zM483 286q31 28 37 66q2 10 2 20q0 26 -16 46q-18 26 -53 26q-34 0 -62 -26q-31 -28 -37 -66q-2 -10 -2 -19q0 -27 16 -47q18 -26 53 -26 q34 0 62 26z" />
<glyph unicode="A" horiz-adv-x="646" d="M239 165l-72 -129q-20 -36 -58 -36q-10 0 -19 3q-20 8 -26 29q-1 7 -1 13q0 15 8 30l325 589q19 36 59 36q39 0 47 -36l117 -589q1 -6 1 -12q0 -16 -10 -31q-13 -21 -36 -29q-10 -3 -20 -3q-17 0 -29.5 10t-15.5 26l-26 129h-244zM300 275h161l-43 215z" />
<glyph unicode="B" horiz-adv-x="594" d="M155 -1q-23 0 -36 17q-10 12 -10 28q0 5 1 10l104 590q4 23 23 39t42 16h1h1h139q79 0 124 -56q36 -44 36 -101q0 -16 -3 -34q-12 -64 -58 -113q41 -29 60 -77q12 -31 12 -67q0 -18 -3 -38q-16 -89 -90 -151.5t-162 -62.5h-178h-2h-1zM355 110q43 0 79 30t43 73 q2 10 2 20q0 30 -19 53q-25 31 -68 31h-125l-37 -207h125zM466 508q1 8 1 15q0 24 -15 41q-19 24 -52 24h-85l-29 -160h86q33 0 60.5 23.5t33.5 56.5z" />
<glyph unicode="C" horiz-adv-x="719" d="M404 0q-148 0 -235 102q-68 79 -68 185q0 30 6 63q26 145 149 247.5t271 102.5q127 0 209 -76q15 -13 15 -33q0 -25 -19 -45q-17 -18 -40 -20q-3 -1 -7 -1q-18 0 -32 12q-60 52 -146 52q-102 0 -187 -70q-86 -71 -102 -169q-4 -23 -4 -44q0 -70 46 -125q60 -70 163 -70 q88 0 164 52q16 12 35 12q4 0 8 -1q22 -3 33 -21q7 -11 7 -24q0 -8 -3 -17q-7 -23 -28 -36q-109 -76 -235 -76z" />
<glyph unicode="D" horiz-adv-x="719" d="M155 0q-23 0 -36 16q-10 13 -10 30q0 5 1 10l103 589q4 23 23.5 39t42.5 16h118q145 0 229 -102q65 -79 65 -184q0 -31 -6 -64q-17 -95 -78 -175.5t-150 -127.5t-184 -47h-117h-1zM574 350q4 23 4 44q0 72 -44 126q-58 69 -157 70h-63l-84 -479h63q99 0 181.5 70 t99.5 169z" />
<glyph unicode="E" horiz-adv-x="593" d="M155 -2q-23 0 -37 16q-10 12 -10 29q0 5 1 10l104 590q4 23 23 39t42 16h1h1h324q23 0 36 -16q11 -12 11 -29q0 -5 -1 -10q-5 -23 -24 -39.5t-41 -16.5h-271l-33 -184h234q23 0 36 -16q10 -12 10 -29q0 -5 -1 -10q-4 -23 -23 -39t-42 -16h-233l-33 -184h271q23 0 36 -17 q11 -12 11 -29q0 -5 -1 -10q-5 -23 -24 -39t-41 -16h-325h-1z" />
<glyph unicode="F" horiz-adv-x="600" d="M155 0q-23 0 -36 16q-10 13 -10 29q0 5 1 10l104 590q4 23 23 39t42 16h1h1h324q23 0 36 -16q10 -13 10 -29q0 -5 -1 -10q-4 -23 -23 -39.5t-42 -16.5h-270l-33 -184h233q23 0 37 -16q10 -12 10 -29q0 -5 -1 -10q-4 -23 -23 -39t-42 -16h-233l-43 -240q-4 -23 -23 -39 t-42 -16z" />
<glyph unicode="G" horiz-adv-x="800" d="M403 1q-148 1 -235 103q-67 79 -67 184q0 30 6 63q26 146 149 248t271 102q127 0 209 -76q15 -13 15 -33q0 -24 -19 -44q-17 -18 -40 -21q-4 -1 -8 -1q-18 0 -31 12q-59 53 -146 53q-102 0 -188 -71q-85 -72 -101 -169q-4 -23 -4 -44q0 -70 46 -124q60 -71 163 -71 q72 0 140 38l24 133h-139q-23 0 -36 17q-10 12 -10 28q0 5 1 10q4 23 23 39t42 16h192h1q23 0 37 -16q10 -12 10 -29q0 -5 -1 -10l-38 -216q-1 -5 -5 -15l-3 -6l-1 -1q-8 -14 -21 -23q-112 -76 -235 -76h-1z" />
<glyph unicode="H" horiz-adv-x="760" d="M521 295h-259l-42 -240q-4 -23 -23 -39t-42 -16t-36 16q-10 13 -10 29q0 5 1 10l103 590q5 23 24 39t42 16t36 -16q10 -13 10 -29q0 -5 -1 -10l-42 -240h259l42 240q5 23 24 39t41 16q23 0 36 -16q11 -12 11 -29q0 -5 -1 -10l-104 -590q-4 -22 -23 -38.5t-42 -16.5 t-37 16q-10 12 -10 29q0 5 1 10z" />
<glyph unicode="I" horiz-adv-x="305" d="M227 54q-4 -22 -23 -38.5t-42 -16.5t-36 16q-11 12 -11 29q0 5 1 10l104 590q5 23 24 39t41 16q23 0 37 -16q10 -12 10 -29q0 -5 -1 -10z" />
<glyph unicode="J" horiz-adv-x="594" d="M94 241q9 3 18 3q12 0 24 -6q18 -11 21 -33q6 -42 37 -69q31 -26 74 -26h3q57 0 104.5 40t57.5 97l70 397q4 22 23 38.5t42 16.5t36 -16q11 -12 11 -29q0 -5 -1 -10l-70 -397q-18 -103 -103.5 -175.5t-188.5 -72.5q-82 0 -138.5 48t-67.5 124q-1 4 -1 8q0 18 12 35 q14 20 37 27z" />
<glyph unicode="K" horiz-adv-x="715" d="M279 700q23 0 36 -16q10 -13 10 -29q0 -5 -1 -10l-51 -289l386 328q19 16 42 16t36 -16q10 -13 10 -30q0 -5 -1 -10q-3 -22 -22 -38l-262 -223l190 -292q7 -11 7 -25q0 -7 -3 -16q-6 -23 -26 -37q-16 -13 -37 -13q-27 0 -39 20l-184 285l-124 -106l-26 -144 q-4 -23 -23 -39t-42 -16t-36 16q-10 13 -10 29q0 5 1 10l104 590q4 23 23 39t42 16z" />
<glyph unicode="L" horiz-adv-x="619" d="M155 2q-23 0 -36 16q-10 13 -10 30q0 5 1 10l104 589q4 23 23 39t42 16t36 -16q10 -12 10 -29q0 -5 -1 -10l-94 -534h271q23 0 37 -16q10 -12 10 -29q0 -5 -1 -10q-5 -23 -24 -39.5t-42 -16.5h-324q0 1 -1 1q0 -1 -1 -1z" />
<glyph unicode="M" horiz-adv-x="868" d="M320 678l150 -276l248 277q20 22 46 22h4h1q23 0 36 -16q10 -12 10 -29q0 -5 -1 -10l-104 -589q-4 -23 -23 -39.5t-42 -16.5t-37 17q-10 12 -10 29q0 5 1 10l74 420l-178 -200q-21 -23 -49 -23h-2h-1q-29 0 -41 23l-108 200l-74 -420q-5 -23 -24 -39.5t-41 -16.5 q-23 0 -37 17q-10 12 -10 29q0 5 1 10l104 589q4 23 23 39t42 16h1h4q26 0 37 -23z" />
<glyph unicode="N" horiz-adv-x="790" d="M110 55l103 587q5 31 32 47q16 11 33 11h9q22 -4 32 -23l246 -452l73 417q5 23 24 39t41 16q23 0 37 -16q10 -12 10 -29q0 -5 -1 -10l-104 -587q-4 -23 -23 -39t-42 -16q-25 0 -38 19q0 1 -1.5 3t-2.5 4l-244 448l-74 -419q-4 -23 -23 -39t-42 -16t-36 16q-10 12 -10 29 q0 5 1 10z" />
<glyph unicode="O" horiz-adv-x="850" d="M361 -1q-140 0 -218 104q-59 76 -59 177q0 33 6 69q26 145 140 246q115 104 255 104q138 0 218 -104q59 -77 59 -177q0 -33 -7 -69q-24 -144 -139 -246q-115 -104 -255 -104zM297 519q-78 -70 -96 -170q-5 -25 -5 -48q0 -69 41 -123q52 -67 144 -69q91 2 168 69 q78 72 96 171q5 25 5 48q0 69 -41 122q-53 69 -144 69t-168 -69z" />
<glyph unicode="P" horiz-adv-x="583" d="M155 1q-23 0 -37 16q-10 12 -10 29q0 5 1 10l104 590q5 23 24 39t41 16h1h1h177q89 0 141 -63q40 -47 40 -111q0 -19 -4 -40q-16 -89 -89.5 -151.5t-162.5 -63.5h-124l-38 -216q-4 -22 -23 -38.5t-42 -16.5zM523 487q2 10 2 18q0 32 -19 55q-25 30 -68 30h-124l-36 -207 h123q43 0 78.5 30.5t43.5 73.5z" />
<glyph unicode="Q" horiz-adv-x="844" d="M786 -18q8 -13 8 -27q0 -8 -3 -17q-7 -23 -30 -39q-91 -63 -182 -63h-1q-85 0 -175 60q-29 16 -58 16q-45 0 -75 -18q-16 -7 -29 -7q-17 0 -31 10q-1 0 -2.5 0.5t-2.5 1.5q0 1 -1 1q-10 10 -13 22q-2 7 -2 15q0 15 9 31q12 23 36 33l2 1q-60 33 -95 80q-63 81 -63 187 q0 37 7 76q24 152 147 264q128 111 273 111q73 0 133.5 -29.5t99.5 -81.5q63 -84 63 -190q0 -36 -7 -74q-23 -149 -147 -263q-67 -56 -132 -82l-23 -10q61 -37 107 -37q47 0 106 39q18 12 38 12h8q24 -3 35 -22zM202 345q-4 -26 -4 -50q0 -75 42 -132q59 -74 154 -74 q94 0 180 74q86 79 103 182q4 27 4 51q0 76 -42 132q-56 72 -155 72q-98 0 -179 -72q-86 -77 -103 -183z" />
<glyph unicode="R" horiz-adv-x="625" d="M578 83q1 -4 1 -8q0 -18 -12 -35q-14 -20 -36 -27q-10 -4 -23 -4q-20 0 -37 11q-19 14 -26 36q-7 20 -7 52q0 29 6 68q1 8 1 16q0 15 -5 26q-6 14 -25 30q-17 12 -52 24h-118l-39 -217q-4 -23 -23 -39t-42 -16t-36 16q-10 13 -10 29q0 5 1 10l104 590q4 23 23 39t42 16h1 h178q89 0 140 -63q40 -48 40 -111q0 -19 -4 -40q-16 -100 -106 -165q16 -17 27 -37q17 -33 17 -73q0 -17 -3 -35q-5 -28 -5 -48v-11q24 -10 28 -34zM301 589l-37 -207h124q43 0 78.5 30.5t43.5 73.5q2 9 2 18q0 32 -20 55q-25 30 -68 30h-123z" />
<glyph unicode="S" horiz-adv-x="667" d="M83 98q-13 12 -13 30q0 22 18 40q16 16 37 18h5q18 0 30 -11q31 -31 78 -53q45 -22 92 -22h4q72 0 127 36q47 31 55 70q1 6 1 11q0 11 -4 20q-9 18 -25 29q-39 30 -126 47h-1h-1q-71 15 -118 38q-57 30 -78 76q-11 24 -11 51q0 14 3 28q16 87 104 142q80 52 177 52 q43 0 85 -15t61 -27t52 -36q16 -11 16 -31.5t-14 -37.5t-35 -21q-6 -2 -11 -2q-14 0 -25 9q-28 20 -45.5 31t-45 20.5t-55.5 9.5h-4q-62 0 -112 -32q-42 -29 -48 -62q-3 -15 3 -27q4 -11 21 -25q35 -27 115 -43h2q76 -14 128 -41q61 -33 82 -80q11 -25 11 -54q0 -14 -3 -30 q-16 -91 -109 -151q-86 -55 -190 -55q-132 1 -233 98z" />
<glyph unicode="T" horiz-adv-x="648" d="M56 645q4 23 23 39t42 16h425q23 0 36 -16q11 -12 11 -29q0 -5 -1 -10q-4 -23 -23 -39t-42 -16h-158l-94 -534q-4 -23 -23 -39.5t-42 -16.5t-36 16q-10 13 -10 30q0 5 1 10l94 534h-158q-23 0 -36 16q-10 12 -10 29q0 5 1 10z" />
<glyph unicode="U" horiz-adv-x="814" d="M728 700q23 0 36 -16q11 -12 11 -29q0 -5 -1 -10l-63 -356q-21 -119 -120.5 -204t-219.5 -85t-189 85q-54 65 -54 151q0 25 5 53l62 356q4 23 23.5 39t42.5 16t36 -16q10 -12 10 -29q0 -5 -1 -10l-63 -356q-3 -17 -3 -33q0 -53 34 -93q43 -52 116 -52q74 0 135.5 52 t74.5 126l63 356q4 23 23 39t42 16z" />
<glyph unicode="V" horiz-adv-x="750" d="M645 697q20 -9 25 -30q1 -6 1 -12q0 -15 -9 -31l-352 -589q-4 -6 -6 -8q-1 -1 -1 -2q-1 -1 -3.5 -3t-3.5 -3l-2 -2q-3 -3 -7 -5q-1 -1 -2 -1q-6 -4 -9 -5h-1l-1 -1q-6 -2 -9 -2l-2 -1q-2 0 -5.5 -0.5t-4.5 -0.5q-2 0 -5.5 0.5t-4.5 0.5t-1 0.5t-1 0.5q-2 0 -8 2l-1 1 q-3 1 -9 5l-1 1l-5 5l-2 2q-2 4 -4 7v1q-3 3 -3 8l-145 589q-1 6 -1 12q0 16 8 31q13 21 36 30q11 5 22 5q10 0 20 -4q20 -9 25 -31l115 -468l279 468q13 22 36 31q11 4 21 4q11 0 21 -5z" />
<glyph unicode="W" horiz-adv-x="1102" d="M1015 696q20 -9 25 -30q1 -6 1 -12q0 -15 -9 -30l-352 -589l-6 -9l-1 -1q-1 -1 -3 -3.5t-3 -3.5h-1l-2 -1q-4 -4 -7 -6q-1 0 -1 -1l-5 -2l-5 -3h-1h-1q-6 -2 -8 -3h-3q-3 -1 -10 -1q-6 0 -9 1h-3q-3 1 -7 3h-2q-1 1 -4 2.5t-4 2.5l-1 1l-6 6l-1 1q-1 1 -4 7l-1 1l-3 9 l-77 313l-187 -313l-6 -9h-1l-1 -1q-1 -1 -3 -3.5t-3 -3.5h-1l-1 -1q-1 -1 -3.5 -3t-3.5 -3q-1 0 -2 -1t-4 -2l-5 -3h-1h-2q-1 -1 -4 -2t-4 -1h-3q-3 -1 -9 -1h-1q-6 0 -9 1h-3q-4 2 -7 3h-1h-1q-1 1 -3.5 2.5t-4.5 2.5l-1 1q-4 4 -5 6q-1 0 -1 0.5t-1 0.5q-1 1 -2 3.5 t-2 3.5v1q-2 3 -4 9l-144 589q-1 6 -1 12q0 15 8 30q12 21 35 30q12 5 23 5q10 0 20 -5q20 -8 25 -29l114 -468l186 310q20 34 58 34q39 0 47 -34l76 -310l280 468q13 21 35 29q11 5 21 5q11 0 21 -5z" />
<glyph unicode="X" horiz-adv-x="722" d="M710 691q16 -14 16 -36.5t-17 -41.5l-238 -262l145 -262q6 -10 6 -22q0 -9 -4 -19q-7 -22 -27 -36q-19 -11 -35 -11q-27 0 -41 23l-129 234l-212 -234q-20 -23 -49 -23q-17 0 -30 11q-16 14 -16 36.5t17 40.5l238 262l-145 262q-7 11 -7 24q0 9 4 18q7 23 28 36 q17 10 34 10q4 0 9 -1q22 -3 32 -21l130 -234l212 234q17 18 40 21q5 1 9 1q17 0 30 -10z" />
<glyph unicode="Y" horiz-adv-x="604" d="M592 611l-257 -283l-48 -274q-4 -22 -23 -38.5t-42 -16.5t-36 16q-11 12 -11 29q0 5 1 10l49 274l-157 283q-6 11 -6 23q0 9 4 18q7 22 27 36q17 11 35 11q4 0 8 -1q23 -3 33 -22l131 -236l214 236q16 19 40 22q4 1 9 1q17 0 30 -11q16 -14 16 -36t-17 -41z" />
<glyph unicode="Z" horiz-adv-x="667" d="M718 647q0 -2 -1 -3v-1q0 -3 -2 -7q0 -3 -1 -4q-2 -4 -3 -5q0 -2 -2 -6q-2 -2 -3 -4q-2 -1 -4 -5l-1 -1l-455 -501h322q23 0 36 -16q10 -13 10 -30q0 -5 -1 -10q-4 -23 -23 -39t-42 -16h-430q-7 0 -10 1q-2 0 -3 1q-1 0 -7 2q0 1 -2 1l-6 3l-2 2q-1 0 -1 1q-1 0 -1 1 l-2 1q-1 2 -3 4q-1 1 -2 2.5t-1 2.5q-2 2 -2 4q-2 2 -2 5l-1 2l-1 2v6v2l-1 2q0 2 0.5 4t0.5 3v3v1q2 6 2 7q1 2 1 4l3 6q0 1 1 2.5t2 2.5l2 2q1 1 1 2q1 2 4 5v1l455 501h-321q-23 0 -36 16q-11 13 -11 30q0 5 1 10q4 22 23 38.5t42 16.5h431h1q4 0 6 -1h4q1 0 3 -1t3 -1 t2 -1t2 -1q2 0 4 -2q1 0 2.5 -1t2.5 -2l1 -1l2 -2l4 -4l2 -4q1 -1 2 -2.5t1 -2.5t1 -2t1 -2v-3l1 -2q0 -1 1 -3v-2v-6v-6z" />
<glyph unicode="[" d="M103 -65l126 710q4 25 24 42.5t45 17.5h206q19 0 31 -14q10 -11 10 -26q0 -4 -1 -8q-4 -19 -20.5 -33t-36.5 -14h-149l-112 -640h149q20 0 31 -14q9 -10 9 -24q0 -4 -1 -9q-3 -19 -19.5 -33.5t-36.5 -14.5h-206q-25 0 -39 17q-11 14 -11 32q0 5 1 11z" />
<glyph unicode="\" horiz-adv-x="500" d="M337 4q-8 -4 -20 -4q-37 0 -51 33l-245 584q-5 10 -5 21q0 10 4 20q9 22 29 30q11 5 22 5t21 -5q21 -8 30 -29l245 -583q5 -11 5 -22q0 -10 -4 -20q-9 -22 -31 -30z" />
<glyph unicode="]" d="M500 645l-126 -710q-4 -25 -24 -42.5t-45 -17.5h-206q-19 0 -31 14q-10 11 -10 26q0 4 1 8q4 19 20.5 33t36.5 14h149l112 640h-149q-20 0 -32 14q-8 10 -8 24q0 4 1 9q3 19 19.5 33.5t36.5 14.5h206q25 0 39 -17q11 -14 11 -32q0 -5 -1 -11z" />
<glyph unicode="^" horiz-adv-x="500" d="M279 625l-91 -93q-26 -26 -42.5 -35t-38.5 -9q-12 0 -19 6q-5 4 -5 10q0 14 18 34l122 130q31 36 68 36h9q35 0 55 -36l68 -130q6 -12 6 -23q0 -3 -1 -7q-5 -20 -32 -20q-23 0 -36.5 9t-27.5 35z" />
<glyph unicode="_" horiz-adv-x="600" d="M18 -160q-19 0 -30 14q-8 9 -8 21q0 6 2 12q4 19 20.5 33t36.5 14h604q19 0 30 -14q8 -9 8 -23q0 -5 -1 -10q-4 -19 -21 -33t-37 -14h-604z" />
<glyph unicode="`" horiz-adv-x="500" d="M318 590q-42 0 -70 27l-68 64q-17 15 -17 30q0 14 23.5 26.5t48.5 12.5q30 0 48 -29l57 -88q9 -13 9 -22q0 -21 -31 -21z" />
<glyph unicode="a" horiz-adv-x="619" d="M246 1q-100 0 -156 74q-42 57 -42 126q0 24 5 49q16 101 98 176q83 73 183 73q72 0 125 -42q7 18 23.5 30t35.5 12q23 0 35 -15q9 -12 9 -27q0 -5 -1 -11l-68 -391q-5 -23 -22.5 -38.5t-39.5 -15.5q-20 0 -32 12t-13 31q-69 -43 -140 -43zM216 353q-48 -43 -58 -103 q-2 -14 -2 -28q0 -42 24 -74q30 -41 85 -41q54 0 98 41q47 41 58 102q3 15 3 30q0 40 -25 73q-31 41 -84 41q-51 0 -99 -41z" />
<glyph unicode="b" horiz-adv-x="660" d="M144 -2q-23 0 -36 16q-10 12 -10 29q0 5 1 10l102 592q4 23 23 39t41 16q23 0 36 -16q10 -13 10 -29q0 -5 -1 -10l-31 -186q72 41 143 41q102 0 160 -74q44 -56 44 -129q0 -23 -4 -48q-18 -104 -102 -177.5t-186 -73.5q-74 0 -130 43q-8 -19 -24.5 -31t-35.5 -12z M301 350q-47 -41 -58 -101q-3 -15 -3 -29q0 -41 25 -72q32 -42 89 -42q53 0 101 42q47 39 58 101q2 14 2 27q0 41 -23 74q-34 42 -90 42q-54 0 -101 -42z" />
<glyph unicode="c" horiz-adv-x="571" d="M299 0q-108 0 -171 74q-49 58 -49 134q0 23 4 47q19 106 109 180.5t197 74.5q91 0 152 -55q14 -13 14 -34q0 -24 -18 -43q-16 -17 -39 -20q-4 -1 -8 -1q-18 0 -31 12q-35 32 -89 32q-63 0 -115 -43t-63 -103q-3 -14 -3 -27q0 -43 29 -76q37 -44 100 -44q54 0 101 33 q16 12 34 12q4 0 8 -1q22 -3 32 -21q7 -11 7 -24q0 -8 -3 -17q-7 -22 -27 -35q-79 -55 -171 -55z" />
<glyph unicode="d" horiz-adv-x="660" d="M283 -1q-101 1 -159 74q-44 56 -44 129q0 23 4 47q18 103 102 177t185 74q72 0 128 -43l30 189q4 22 23 38t41 16q23 0 36 -16q10 -12 10 -28q0 -5 -1 -10l-102 -592q-5 -23 -23.5 -39t-40.5 -16q-19 0 -32 12.5t-14 30.5q-71 -43 -143 -43zM250 350q-48 -42 -57 -101 q-3 -15 -3 -29q0 -39 24 -71q34 -41 88 -41q53 0 102 41q48 43 57 100q2 15 2 28q0 42 -23 73q-33 41 -88 41q-56 0 -102 -41z" />
<glyph unicode="e" horiz-adv-x="609" d="M280 0q-102 1 -159 74q-43 55 -43 126q0 24 5 50q19 103 102.5 176.5t185.5 73.5q99 0 155 -66q46 -53 46 -129q0 -18 -2 -37q0 -4 -1 -5q0 -5 -2 -9q-5 -18 -22 -29t-37 -11h-319q0 -39 22 -66q12 -18 37 -30.5t51 -14.5q9 -1 17 -1q60 0 102 39q17 16 35.5 16t25 -4.5 t11.5 -9.5q12 -13 12 -29q0 -21 -16 -37q-45 -42 -92 -59.5t-114 -17.5zM354 405q-58 -3 -99 -36t-56 -70h283q-2 35 -35.5 68t-92.5 38z" />
<glyph unicode="f" horiz-adv-x="362" d="M292 583q-10 -10 -18 -51l-2 -14h29q23 0 37 -16q10 -12 10 -29q0 -5 -1 -10q-5 -23 -24 -39.5t-41 -16.5h-30l-62 -352q-4 -23 -23 -39t-42 -16t-36 16q-10 12 -10 29q0 5 1 10l62 352h-26q-23 0 -36 17q-11 12 -11 29q0 5 1 10q5 23 24 39t41 16h26l3 14q9 58 36 98 q31 48 83 61q27 9 61 9q23 0 36 -16q11 -13 11 -30q0 -5 -1 -10q-5 -23 -24 -39t-41 -16q-20 0 -26 -3q-5 -2 -7 -3z" />
<glyph unicode="g" horiz-adv-x="660" d="M555 246l-33 -186q-17 -100 -100 -171t-184 -71q-56 0 -102 24q-18 10 -22 31v9q0 16 10 32q13 20 36 28q9 3 18 3q12 0 22 -6q26 -14 57 -14q48 0 90.5 31t59.5 77q-69 -41 -138 -41q-100 0 -159 76q-42 56 -42 129q0 24 4 49q18 105 101 178q84 76 185 76q75 0 128 -44 q7 19 23.5 31.5t36.5 12.5q23 0 36 -16q9 -12 9 -28q0 -5 -1 -10l-35 -199v-1zM288 101q55 0 100 42q48 40 59 103l1 1q2 14 2 27q0 44 -25 76q-32 42 -85 42q-54 0 -102 -42q-48 -43 -58 -104q-3 -15 -3 -29q0 -41 24 -74q33 -42 87 -42z" />
<glyph unicode="h" horiz-adv-x="613" d="M469 1q-23 0 -37 16q-10 12 -10 29q0 5 1 10l43 227q2 10 2 20q0 31 -20 55q-26 32 -70 32t-81 -31.5t-45 -75.5l-43 -227q-5 -23 -24 -39t-41 -16q-23 0 -36 16q-11 12 -11 29q0 5 1 10l44 227l60 363q4 23 23 39t42 16t37 -16q10 -12 10 -29q0 -5 -1 -10l-27 -173 q53 28 112 28q90 0 142 -63q41 -49 41 -114q0 -20 -4 -41l-43 -227q-5 -23 -24 -39t-41 -16z" />
<glyph unicode="i" horiz-adv-x="281" d="M99 54l73 391q4 23 23 39t42 16t36 -16q10 -13 10 -29q0 -5 -1 -10l-72 -391q-4 -23 -23 -39t-42 -16t-37 16q-10 12 -10 29q0 5 1 10zM310 623q-4 -23 -23 -39.5t-42 -16.5t-36 17q-10 12 -10 29q0 5 1 10l3 21q5 23 24 39t41 16q23 0 36 -16q11 -12 11 -29q0 -5 -1 -10 z" />
<glyph unicode="j" horiz-adv-x="249" d="M311 644l-4 -21q-4 -24 -23.5 -41t-43.5 -17q-23 0 -36 17q-11 13 -11 30q0 6 1 11l4 21q4 23 23 39.5t43 16.5q23 0 37 -16q11 -13 11 -30q0 -5 -1 -10zM230 500q23 0 36 -16q11 -12 11 -29q0 -6 -1 -11l-96 -529q-8 -47 -47.5 -80t-85.5 -33q-23 0 -37 16 q-10 13 -10 30q0 6 1 11q4 23 23.5 39.5t42.5 16.5l96 529q4 24 23.5 40t43.5 16z" />
<glyph unicode="k" horiz-adv-x="560" d="M144 0q-23 0 -36 16q-10 13 -10 29q0 5 1 10l104 590q4 23 23 39t42 16t36 -16q10 -13 10 -29q0 -5 -1 -10l-61 -347l242 206q20 16 42.5 16t35.5 -16q10 -13 10 -30v-10q-4 -22 -23 -38l-176 -150l120 -186q7 -11 7 -25q0 -7 -2 -15q-6 -23 -26 -37q-17 -13 -38 -13 q-25 0 -39 20l-115 178l-65 -56l-16 -87q-4 -23 -23 -39t-42 -16z" />
<glyph unicode="l" horiz-adv-x="249" d="M209 644q4 23 23.5 39t42.5 16t36 -16q10 -12 10 -29q0 -5 -1 -10l-104 -589q-4 -23 -23 -39.5t-42 -16.5t-37 17q-10 12 -10 29q0 5 1 10z" />
<glyph unicode="m" horiz-adv-x="951" d="M557 292l-41 -236q-5 -23 -23 -38.5t-40 -15.5t-35 16q-10 12 -10 29q0 5 1 9l42 236v2q2 9 2 18q0 30 -20 54q-25 29 -67 29q-41 0 -77 -30t-43 -73l-42 -236q-4 -22 -22 -38t-40 -16t-34 16q-10 12 -10 28q0 5 1 10l41 236l27 155q5 23 23 38t40 15q33 0 43 -30 q54 30 112 30q94 0 144 -69q74 69 168 69q86 0 136 -61q38 -47 38 -109q0 -18 -3 -38l-42 -236q-3 -22 -21.5 -38t-40.5 -16t-34 16q-10 12 -10 28q0 5 1 10l41 236q2 11 2 20q0 30 -18 53q-25 30 -68 30q-42 0 -77 -29.5t-43 -71.5z" />
<glyph unicode="n" horiz-adv-x="613" d="M410 55l42 236q2 10 2 18q0 32 -20 55q-24 30 -67 30t-78 -30t-42 -73l-43 -236q-3 -22 -21.5 -38t-40.5 -16t-35 16q-10 12 -10 28q0 5 1 10l42 236l27 156q5 22 23 37.5t40 15.5q34 0 42 -31q54 31 113 31q87 0 137 -61q39 -46 39 -108q0 -19 -4 -40l-42 -236 q-3 -22 -21 -38t-40 -16t-35 15q-10 12 -10 29q0 5 1 10z" />
<glyph unicode="o" horiz-adv-x="625" d="M365 500q98 0 158 -75q41 -56 41 -127q0 -24 -4 -49q-18 -104 -100 -176q-82 -75 -183 -75q-99 0 -158 75q-41 55 -41 127q0 24 4 49q18 101 99 176q85 75 184 75zM454 249q3 15 3 29q0 43 -26 73q-30 42 -84 42t-101 -42q-46 -41 -58 -102q-3 -15 -3 -30q0 -42 25 -73 q32 -42 85 -42t101 42q46 41 58 103z" />
<glyph unicode="p" horiz-adv-x="660" d="M454 500q102 0 160 -74q44 -56 44 -130q0 -23 -4 -47q-18 -103 -102.5 -177t-185.5 -75q-76 2 -128 43l-30 -175q-5 -23 -24 -39t-41 -16t-35 16q-11 12 -11 29q0 5 1 10l103 580q4 23 22.5 39t41.5 16q19 0 31.5 -12t13.5 -30q71 42 144 42zM487 149q49 39 58 100 q3 15 3 29q0 42 -25 72q-34 41 -87 41q-55 0 -104 -41q-47 -44 -56 -101q-4 -16 -4 -31q0 -39 25 -69q34 -42 88 -42t102 42z" />
<glyph unicode="q" horiz-adv-x="660" d="M570 250v-1l-68 -381q-4 -23 -22.5 -39t-41.5 -16q-22 0 -35 17q-10 12 -10 28q0 5 1 10l31 173q-67 -40 -142 -42q-101 1 -159 74q-44 56 -44 129q0 23 4 47q18 104 101.5 177t185.5 73q75 0 128 -42q7 19 24 30.5t37 11.5q22 0 35 -15q10 -12 10 -29q0 -5 -1 -10z M403 149q47 41 58 100v1q3 15 3 28q0 41 -25 72q-32 41 -88 41q-54 0 -101 -41t-58 -101q-2 -14 -2 -27q0 -41 24 -73q34 -41 88 -41q53 0 101 41z" />
<glyph unicode="r" horiz-adv-x="439" d="M230 500q22 0 35 -16q10 -11 10 -27q0 -5 -1 -10l-2 -7q12 10 28 19q63 41 132 41q22 0 35 -16q10 -11 10 -27q0 -5 -1 -10q-5 -22 -23 -38t-39 -16q-31 0 -64 -18q-24 -13 -55 -48q-37 -42 -57 -85l-33 -189q-4 -22 -22.5 -37.5t-40.5 -15.5t-35 16q-10 11 -10 27 q0 5 1 10l70 394q3 22 21.5 37.5t40.5 15.5z" />
<glyph unicode="s" horiz-adv-x="492" d="M71 70q-14 13 -14 31q0 23 19 42q17 18 40 20h5q20 0 33 -13q16 -17 44 -30q26 -12 51 -12h4q41 0 72 18q22 15 25 29q0 7 -1 11q-4 6 -11 13q-26 17 -77 27h-1q-52 10 -83 26q-42 26 -56 59q-8 21 -8 45q0 8 1 17q13 64 78 109q62 38 129 38q69 0 140 -56q18 -11 18 -34 q0 -22 -16 -39q-14 -18 -37 -23q-6 -1 -11 -1q-15 0 -27 9q-51 38 -85 38q-39 0 -63 -19q-17 -10 -20 -22v-8q2 -5 10 -10q17 -15 67 -23l1 -1h1q54 -10 88 -29q44 -23 60 -60q9 -20 9 -44q0 -11 -2 -23q-13 -68 -82 -114q-64 -40 -137 -40q-94 1 -164 69z" />
<glyph unicode="t" horiz-adv-x="400" d="M229 701q23 0 37 -16q10 -12 10 -29q0 -5 -1 -10l-22 -146h26q23 0 36 -16q10 -13 10 -30q0 -5 -1 -10q-4 -23 -23 -39t-42 -16h-26l-52 -277q23 0 37 -16q10 -13 10 -30q0 -5 -1 -10q-5 -23 -24 -39t-41 -16q-46 0 -73 33q-21 25 -21 58q0 9 2 20l53 277h-30 q-23 0 -36 17q-10 12 -10 28q0 5 1 10q4 23 23 39.5t42 16.5h29l22 146q5 23 24 39t41 16z" />
<glyph unicode="u" horiz-adv-x="613" d="M519 500q23 0 35 -16q9 -11 9 -26q0 -5 -1 -11l-41 -237q-15 -86 -87 -147.5t-158 -61.5q-87 0 -138 61q-38 47 -38 108q0 19 4 40l41 237q4 22 22 37.5t40 15.5t35 -15q10 -11 10 -28q0 -5 -1 -10l-42 -237q-2 -9 -2 -18q0 -31 20 -54q25 -30 67 -30q43 0 78 30t43 72 l42 237q4 22 22 37.5t40 15.5z" />
<glyph unicode="v" horiz-adv-x="582" d="M469 490q18 -9 23 -29q1 -5 1 -11q0 -14 -9 -29l-232 -390q-1 -2 -5 -8q-1 0 -1 -0.5t-1 -0.5q-1 -1 -2.5 -3t-2.5 -3h-1l-1 -1q-3 -3 -7 -5q-1 -1 -2 -1q-6 -4 -9 -5h-1l-1 -1q-6 -2 -8 -2l-2 -1q-2 0 -5 -0.5t-4 -0.5h-1q-2 0 -5 0.5t-4 0.5l-2 1q-2 0 -8 2l-1 1 q-3 1 -7 5q-1 0 -1 1q-2 1 -6 5l-1 1q-2 2 -4 6l-1 1q-2 6 -3 8l-95 390q-2 6 -2 12q0 14 8 28q12 20 34 29q11 4 21.5 4t19.5 -4q19 -8 23 -28l68 -274l163 274q12 20 33 28q11 4 21.5 4t19.5 -4z" />
<glyph unicode="w" horiz-adv-x="861" d="M711 488q19 -7 23 -28q2 -5 2 -11q0 -14 -9 -29l-231 -386q-4 -6 -6 -8v-2l-6 -6l-2 -2q-4 -2 -7 -4q-1 0 -1 -0.5t-1 -0.5q-1 -1 -4 -3l-5 -2q-1 0 -2 -1q-3 0 -7 -2h-3q-3 -1 -10 -1q-5 0 -8 1h-3q-4 2 -7 2l-1 1h-1q-6 4 -7 5q-1 0 -1 0.5t-1 0.5q-1 3 -4 4l-2 2l-3 6 q-1 1 -1 2q-1 2 -3 8l-42 171l-103 -171q0 -5 -5 -8q0 -1 -1 -2l-6 -6l-2 -2q-6 -3 -7 -4q0 -1 -2 -1q-1 -1 -3.5 -2.5t-4.5 -2.5h-1q-1 0 -1 -1q-4 0 -8 -2h-3q-3 -1 -9 -1t-9 1h-3q-4 2 -6 2q-1 1 -2 1h-1q-1 1 -3 2.5t-3 2.5q-1 0 -1 0.5t-1 0.5q-1 2 -5 4v1l-1 1 q-2 2 -4 6l-1 1v1q-1 2 -3 8l-94 386q-2 6 -2 12q0 14 9 28q11 20 32 28q12 5 22 5t18 -4q19 -8 24 -28l67 -272l100 168q20 32 51 32h4h4q32 0 40 -32l41 -168l163 272q12 20 34 28q10 4 19 4q10 0 20 -5z" />
<glyph unicode="x" horiz-adv-x="570" d="M515 483q16 -13 16 -33q0 -22 -17 -41l-148 -162l90 -163q6 -10 6 -22q0 -8 -3 -16q-7 -22 -27 -35q-16 -10 -33 -10q-25 0 -39 21l-75 136l-122 -136q-21 -21 -47 -21q-18 0 -29 10q-15 13 -15 34.5t16 38.5l148 163l-90 162q-6 11 -6 22q0 9 3 17q7 22 27 35 q15 10 31 10q5 0 9 -1q22 -3 32 -21l75 -135l124 135q15 18 37 21q5 1 9 1q16 0 28 -10z" />
<glyph unicode="y" horiz-adv-x="588" d="M537 447l-14 -77l-54 -308q-17 -100 -100 -170.5t-183 -70.5q-57 0 -102 25q-18 10 -22 31v9q0 16 10 32q14 20 36 27q10 3 18 3q12 0 23 -6q26 -13 56 -13q43 0 82.5 25t59.5 66q-48 -24 -101 -24q-87 0 -138 62q-39 48 -39 111q0 18 3 38l42 240q4 22 22.5 37.5 t40.5 15.5q23 0 36 -16q10 -11 10 -27q0 -5 -1 -10l-43 -240q-2 -10 -2 -20q0 -30 19 -53q26 -31 69 -31t79 30.5t44 73.5l41 240q3 16 14 28q22 25 49 25q19 0 29 -10q17 -11 17 -32q0 -5 -1 -11z" />
<glyph unicode="z" horiz-adv-x="554" d="M412 106q22 0 35 -16q10 -12 10 -28q0 -5 -1 -10q-4 -22 -22 -37.5t-40 -15.5h-288q-7 0 -10 1q-2 0 -3 1q-2 0 -6 2q0 1 -2 1q-1 0 -2.5 1t-2.5 2l-2 2h-1l-3 3q-2 2 -3 4q-1 0 -2 2l-1 2q-2 2 -2 4q-2 2 -2 4q-1 1 -1 2q-1 2 -1 3v4q0 1 -0.5 3t-0.5 3t1 3v2v4v1 q0 1 1 3t1 3t1 2.5t1 2.5t2 5q0 1 1 2.5t2 2.5q0 3 3 3q2 4 4 5v1l280 309h-182q-22 0 -35 16q-10 12 -10 28q0 5 1 10q4 22 22 37.5t40 15.5h288h1q4 0 6 -1h5l2 -1l2 -1q2 0 4 -2q2 0 4 -2q1 -1 2 -1q2 -1 3 -1l3 -3q2 -2 3 -4l2 -2q1 -1 1 -2q2 -2 2 -4q2 -4 2 -5 q1 -1 1 -4q1 -2 1 -6v-2q1 -2 1 -3t-0.5 -3t-0.5 -3v-3v-1q-2 -4 -2 -6q-1 -1 -1 -4q-2 -4 -3 -5q-2 -4 -3 -5t-2 -2.5t-1 -2.5l-1 -2q-1 -2 -2 -2l-1 -1l-280 -309h182z" />
<glyph unicode="{" horiz-adv-x="480" d="M325 -148q-107 24 -141 70q-25 33 -25 82q0 19 4 42q1 9 7 37.5t7 34.5q4 20 4 36q0 28 -11 45q-18 26 -68 27q-23 1 -34 14q-9 11 -9 24q0 5 1 10q4 20 19.5 33.5t39.5 14.5q51 2 77.5 27.5t36.5 81.5q2 9 10 72q14 77 64.5 123t165.5 70q7 1 13 1q15 0 25 -8 q11 -9 11 -25q0 -4 -1 -9q-5 -32 -35 -41q-73 -21 -98.5 -48t-35.5 -81q-1 -6 -3 -22t-4 -29.5t-4 -22.5q-10 -56 -41.5 -88.5t-86.5 -48.5q50 -17 70 -49q13 -21 13 -53q0 -16 -3 -35q-1 -6 -7 -34t-8 -40q-4 -21 -4 -38q0 -26 10 -43q16 -27 82 -48q22 -8 22 -32 q0 -4 -1 -9q-4 -22 -22 -34q-13 -8 -27 -8q-7 0 -13 1z" />
<glyph unicode="|" horiz-adv-x="286" d="M126 -85l149 840q4 20 21 34t37 14t31 -14q9 -10 9 -24q0 -5 -1 -10l-150 -840q-4 -20 -21.5 -34t-37.5 -14q-19 0 -30 14q-8 10 -8 24q0 5 1 10z" />
<glyph unicode="}" horiz-adv-x="480" d="M254 696q107 -24 142 -70q24 -33 24 -82q0 -19 -4 -42q-1 -9 -7 -37.5t-7 -34.5q-4 -20 -4 -36q0 -28 12 -45q17 -26 67 -27q23 -1 35 -14q8 -11 8 -24q0 -5 -1 -10q-4 -20 -19.5 -33.5t-39.5 -14.5q-51 -2 -77.5 -27.5t-36.5 -81.5q-2 -9 -10 -72q-14 -77 -64.5 -123 t-165.5 -70q-7 -1 -13 -1q-15 0 -25 8q-11 9 -11 25q0 4 1 9q5 32 35 41q73 21 98.5 48t35.5 81q1 6 3 22t4 29.5t4 22.5q10 56 41.5 88.5t86.5 48.5q-50 17 -70 49q-13 21 -13 53q0 16 3 35q1 6 7 34t8 40q4 21 4 38q0 26 -10 43q-16 27 -82 48q-22 8 -22 32q0 4 1 9 q4 22 22 34q13 8 27 8q7 0 13 -1z" />
<glyph unicode="~" horiz-adv-x="460" d="M154 247q-11 -20 -32 -20q-15 0 -26 10t-11 24t4 22q17 46 40 68.5t62 22.5q30 0 79 -19.5t64 -19.5q30 0 47 31q11 21 32 21q15 0 26 -10.5t11 -23.5q0 -14 -4 -23q-17 -46 -40 -68.5t-62 -22.5q-30 0 -79 20t-64 20q-30 0 -47 -32z" />
<glyph unicode="&#xa2;" horiz-adv-x="581" d="M410 139q16 12 34 12q4 0 8 -1q21 -3 34 -22q5 -9 5 -20q0 -8 -3 -18q-7 -22 -27 -37q-83 -54 -171 -54q-44 0 -83 14l-32 -54q-20 -33 -57 -33q-12 0 -19 4q-20 8 -25 30q-2 6 -2 12q0 15 9 30l41 69q-51 59 -51 136q0 22 4 46q19 106 108.5 180.5t196.5 75.5h4l45 76 q13 21 35 29q11 5 22 5t21 -5q19 -8 23 -30q2 -5 2 -11q0 -15 -9 -30l-36 -59q27 -14 45 -31q14 -13 14 -33q0 -24 -16 -42q-19 -19 -42 -22h-6q-18 0 -31 12q-7 6 -23 16l-161 -271q18 -6 42 -6q52 0 101 32zM183 253q-2 -13 -2 -25q0 -23 8 -45l125 210q-49 -14 -86 -53 t-45 -87z" />
<glyph unicode="&#xa3;" horiz-adv-x="644" d="M70 43q5 34 41 44l53 15l31 176h-32q-22 0 -34 15q-9 11 -9 26q0 5 1 11q3 21 21 36.5t40 15.5h32l16 92q20 112 93 174q71 62 179 62q120 0 180 -81q13 -15 13 -34q0 -5 -1 -10q-4 -25 -25 -42.5t-47 -17.5t-41 19q-39 52 -98 52q-44 0 -78 -28q-39 -34 -51 -97l-15 -89 h202q21 0 33 -16q11 -12 11 -28q0 -4 -1 -8q-4 -22 -22.5 -37t-39.5 -15h-202l-30 -171h276q22 0 36 -16q10 -12 10 -28q0 -5 -1 -10q-4 -22 -22.5 -37.5t-41.5 -15.5h-438q-21 0 -31 12q-9 10 -9 23q0 4 1 8z" />
<glyph unicode="&#xa5;" horiz-adv-x="686" d="M394 266l-13 -73h154q18 0 29 -13q8 -10 8 -24q0 -4 -1 -8q-3 -18 -18.5 -31t-33.5 -13h-154l-8 -48q-4 -25 -24.5 -42t-45.5 -17t-39 17q-10 13 -10 29q0 6 1 13l8 48h-154q-18 0 -29 13q-8 10 -8 23q0 4 1 8q3 19 18.5 32t33.5 13h154l13 73h-154q-18 0 -29 13 q-8 10 -8 22q0 4 1 9q3 19 18 32t33 13h119l-139 252q-9 15 -9 32q0 5 1 10q5 24 25.5 41t46.5 17q34 0 52 -34l129 -261l222 260q31 35 63 35q25 0 39 -15q10 -12 10 -29q0 -6 -1 -13q-4 -24 -22 -43l-231 -252h121q18 0 29 -13q9 -10 9 -24q0 -4 -1 -8q-4 -18 -19 -31 t-33 -13h-154z" />
<glyph unicode="&#xa9;" horiz-adv-x="830" d="M414 -12q-151 0 -256 105.5t-105 254.5v2q0 149 106 255.5t257 106.5t256 -105.5t105 -254.5v-2q0 -149 -106 -255.5t-257 -106.5zM414 24q138 0 231.5 95.5t93.5 230.5v2q0 135 -93 229.5t-230 94.5q-138 0 -231.5 -95.5t-93.5 -230.5v-2q0 -135 93 -229.5t230 -94.5z M419 159q-82 0 -137 56t-55 138v2q0 82 55 139t139 57q77 0 130 -43q16 -11 16 -30q0 -16 -10.5 -26.5t-25.5 -10.5q-11 0 -24 10q-41 32 -86 32q-50 0 -84 -37t-34 -90v-2q0 -52 34 -89.5t84 -37.5t92 36q11 9 22 9q14 0 24.5 -10.5t10.5 -24.5q0 -16 -11 -25 q-61 -53 -140 -53z" />
<glyph unicode="&#xad;" horiz-adv-x="408" d="M288 308h-186q-15 0 -25.5 10.5t-10.5 25.5t10.5 25.5t25.5 10.5h186q15 0 25 -10.5t10 -25.5t-10 -25.5t-25 -10.5z" />
<glyph unicode="&#xae;" horiz-adv-x="416" d="M208 360q-73 0 -123.5 51t-50.5 123v1q0 72 51 123.5t123 51.5q73 0 123.5 -51t50.5 -123v-1q0 -72 -51 -123.5t-123 -51.5zM208 379q65 0 109.5 46t44.5 110v1q0 64 -44.5 109.5t-109.5 45.5t-109.5 -46t-44.5 -110v-1q0 -64 44.5 -109.5t109.5 -45.5zM275 463 q8 -2 11 -10q1 -4 1 -7q0 -9 -12 -13l-2 -1h-4q-6 0 -12 3q-5 3 -9 10q-6 13 -6 36q-2 9 -4 12q-3 5 -9 9q-5 3 -16 7h-34v-64q0 -7 -5 -11.5t-12 -4.5q-16 0 -16 16v173q0 16 16 16h53q26 0 44 -18.5t18 -44.5q0 -28 -23 -48q8 -6 11 -11q9 -14 9 -31q0 -5 0.5 -11t0.5 -7z M215 541q12 0 21 9t9 21q0 13 -9 21.5t-21 8.5h-36v-60h36z" />
<glyph unicode="&#xb4;" horiz-adv-x="500" d="M231 590q-30 0 -30 21q0 10 8 22l57 88q18 29 48 29q25 0 48.5 -12.5t23.5 -26.5q0 -15 -17 -30l-67 -64q-29 -27 -71 -27z" />
<glyph unicode="&#x2000;" horiz-adv-x="401" />
<glyph unicode="&#x2001;" horiz-adv-x="803" />
<glyph unicode="&#x2002;" horiz-adv-x="401" />
<glyph unicode="&#x2003;" horiz-adv-x="803" />
<glyph unicode="&#x2004;" horiz-adv-x="267" />
<glyph unicode="&#x2005;" horiz-adv-x="200" />
<glyph unicode="&#x2006;" horiz-adv-x="133" />
<glyph unicode="&#x2007;" horiz-adv-x="133" />
<glyph unicode="&#x2008;" horiz-adv-x="100" />
<glyph unicode="&#x2009;" horiz-adv-x="160" />
<glyph unicode="&#x200a;" horiz-adv-x="44" />
<glyph unicode="&#x2010;" horiz-adv-x="408" d="M288 308h-186q-15 0 -25.5 10.5t-10.5 25.5t10.5 25.5t25.5 10.5h186q15 0 25 -10.5t10 -25.5t-10 -25.5t-25 -10.5z" />
<glyph unicode="&#x2011;" horiz-adv-x="408" d="M288 308h-186q-15 0 -25.5 10.5t-10.5 25.5t10.5 25.5t25.5 10.5h186q15 0 25 -10.5t10 -25.5t-10 -25.5t-25 -10.5z" />
<glyph unicode="&#x2013;" horiz-adv-x="528" d="M117 249q-23 0 -36 17q-8 11 -8 25q0 7 2 15q6 24 27.5 41t44.5 17h312q23 0 35 -17q9 -11 9 -26q0 -7 -2 -15q-7 -23 -28 -40t-44 -17h-312z" />
<glyph unicode="&#x2014;" horiz-adv-x="898" d="M116 249q-23 0 -35 17q-8 11 -8 24q0 8 3 16q7 24 28.5 41t44.5 17h682q23 0 35 -17q9 -11 9 -25q0 -7 -3 -16q-8 -23 -29.5 -40t-44.5 -17h-682z" />
<glyph unicode="&#x2018;" horiz-adv-x="230" d="M252 676q0 -20 -24 -27q-68 -21 -68 -84v-5q24 -7 40.5 -25t16.5 -43v-8q0 -29 -19 -48t-49 -19q-33 0 -52.5 24t-19.5 64v10q0 98 50 146q41 43 94 43q31 0 31 -28z" />
<glyph unicode="&#x2019;" horiz-adv-x="230" d="M59 446q0 20 23 27q68 21 68 85v5q-24 6 -40.5 23.5t-16.5 43.5v8q0 29 19 48t49 19q33 0 52.5 -24t19.5 -64v-10q0 -97 -49 -146q-43 -43 -94 -43q-31 0 -31 28z" />
<glyph unicode="&#x201c;" horiz-adv-x="410" d="M252 676q0 -20 -24 -27q-68 -21 -68 -84v-5q24 -7 40.5 -25t16.5 -43v-8q0 -29 -19 -48t-49 -19q-33 0 -52.5 24t-19.5 64v10q0 98 50 146q41 43 94 43q31 0 31 -28zM484 676q0 -20 -24 -27q-68 -21 -68 -84v-5q24 -7 40.5 -25t16.5 -43v-8q0 -29 -19 -48t-49 -19 q-33 0 -52.5 24t-19.5 64v10q0 97 49 146q43 43 94 43q32 0 32 -28z" />
<glyph unicode="&#x201d;" horiz-adv-x="410" d="M59 446q0 20 23 27q68 21 68 85v5q-24 6 -40.5 23.5t-16.5 43.5v8q0 29 19 48t49 19q33 0 52.5 -24t19.5 -64v-10q0 -97 -49 -146q-43 -43 -94 -43q-31 0 -31 28zM290 446q0 20 24 27q68 21 68 85v5q-24 6 -40.5 23.5t-16.5 43.5v8q0 29 19 48t49 19q33 0 52.5 -24 t19.5 -64v-10q0 -98 -50 -146q-41 -43 -94 -43q-31 0 -31 28z" />
<glyph unicode="&#x2026;" horiz-adv-x="680" d="M617 50q0 -20 -14.5 -35t-34.5 -15t-35 15t-15 35t15 34.5t35 14.5t34.5 -14.5t14.5 -34.5zM399 50q0 -20 -14.5 -35t-34.5 -15t-35 15t-15 35t15 34.5t35 14.5t34.5 -14.5t14.5 -34.5zM181 50q0 -20 -14.5 -35t-34.5 -15t-35 15t-15 35t15 34.5t35 14.5t34.5 -14.5 t14.5 -34.5z" />
<glyph unicode="&#x202f;" horiz-adv-x="160" />
<glyph unicode="&#x205f;" horiz-adv-x="200" />
<glyph unicode="&#x2122;" horiz-adv-x="690" d="M24 677q6 24 29 24h182q10 0 15.5 -7t4.5 -17q-2 -10 -10.5 -16.5t-17.5 -6.5h-68l-40 -229q-6 -24 -29 -24q-9 0 -14.5 7t-3.5 17l40 229h-69q-9 0 -14.5 6.5t-4.5 16.5zM383 692l65 -119l106 119q8 9 20 9h2q10 0 16 -7q4 -4 4 -11q0 -2 -1 -5l-45 -252q-1 -10 -9 -17 t-18 -7t-15.5 7t-4.5 17l31 179l-76 -85q-9 -10 -21 -10h-1q-12 0 -18 10l-46 85l-31 -179q-5 -24 -29 -24q-19 0 -19 19v5l44 252q2 10 10 16.5t18 6.5h1h4q9 0 13 -9z" />
</font>
</defs>
</svg>
