<?xml version="1.0" standalone="no"?>
<!DOCTYPE svg PUBLIC "-//W3C//DTD SVG 1.1//EN" "http://www.w3.org/Graphics/SVG/1.1/DTD/svg11.dtd" >
<svg xmlns="http://www.w3.org/2000/svg">
<metadata>
This is a custom SVG webfont generated by Font Squirrel.
Designer    : Andrew Paglinawan
Foundry     : Andrew Paglinawan
</metadata>
<defs>
<font id="webfontDkcdglAy" horiz-adv-x="430" >
<font-face units-per-em="1000" ascent="800" descent="-200" />
<missing-glyph horiz-adv-x="300" />
<glyph unicode=" "  horiz-adv-x="300" />
<glyph unicode="&#x09;" horiz-adv-x="300" />
<glyph unicode="&#xa0;" horiz-adv-x="300" />
<glyph unicode="!" horiz-adv-x="252" d="M239 698q10 -2 15.5 -10.5t4.5 -18.5l-89 -502q-3 -20 -24 -20h-4q-20 4 -20 24v5l89 502q1 10 9 16q7 4 14 5q3 0 5 -1zM128 70q20 -4 20 -24v-5l-4 -23q-1 -9 -8.5 -14.5t-15.5 -5.5h-4q-11 2 -16 10q-5 7 -5 14q0 2 1 5l4 23q1 10 10 16q6 4 13 4h5z" />
<glyph unicode="&#x22;" horiz-adv-x="410" d="M250 461l30 215q4 26 28 26h19q16 0 16 -17q0 -1 -5 -24l-57 -201q-6 -18 -17 -18q-17 0 -14 19zM70 461l30 215q4 26 28 26h19q16 0 16 -17q0 -1 -5 -24l-57 -201q-6 -18 -17 -18q-14 0 -14 14v5z" />
<glyph unicode="#" horiz-adv-x="700" d="M113 25l55 162h-101q-10 0 -15 7q-5 5 -5 13q0 12 9 20q9 7 19 7h109l81 236h-110q-10 0 -16 6.5t-4 16.5q1 10 9.5 17t18.5 7h118l55 165q7 22 29 22q12 0 16 -8.5t1 -20.5l-53 -158h207l55 165q7 22 29 22q12 0 16 -8.5t1 -20.5l-53 -158h100q10 0 16 -7q4 -5 4 -13 q0 -12 -10 -20q-8 -7 -18 -7h-108l-81 -236h109q10 0 15.5 -6.5t4.5 -16.5t-9.5 -17t-18.5 -7h-117l-57 -169q-7 -22 -29 -22q-12 0 -16 8.5t-1 20.5l55 162h-207l-57 -169q-7 -22 -29 -22q-12 0 -16 8.5t-1 20.5zM232 234h207l81 236h-207z" />
<glyph unicode="$" horiz-adv-x="632" d="M454 738q3 10 12 17t19 7t15 -7t2 -17l-9 -40q92 -8 160 -70q9 -9 9 -18q0 -2 -1 -5q-2 -10 -11.5 -17.5t-20.5 -7.5q-10 0 -16 7q-56 56 -134 65l-71 -280q108 -24 148 -68q28 -31 28 -76q0 -20 -6 -43q-20 -79 -93 -130.5t-168 -54.5l-19 -78q-3 -10 -12 -17t-19 -7 t-15 7t-2 17l19 79q-122 10 -201 97q-6 7 -6 15q0 3 1 6q2 10 11.5 17.5t19.5 7.5q11 0 16 -7q66 -80 172 -91l73 285q-107 25 -145 69q-26 29 -26 73q0 21 6 46q19 76 91.5 127.5t163.5 53.5zM526 181q4 17 4 32q0 32 -18 55q-28 32 -116 53l-70 -276q74 1 130 39.5 t70 96.5zM242 523q-5 -19 -5 -35q0 -30 17 -52q26 -32 114 -54l68 273q-72 -1 -126 -39t-68 -93z" />
<glyph unicode="&#x26;" horiz-adv-x="696" d="M569 421q10 1 17.5 -6t8.5 -17v-10q0 -61 -39 -92q-18 -15 -43 -22v-10q0 -23 -4 -40q-16 -94 -92.5 -159t-171.5 -66q-84 0 -141 55q-55 55 -55 138q0 19 3 40q11 58 46.5 107.5t87.5 79.5q-27 38 -27 86q0 15 3 29q12 69 67.5 116.5t125.5 48.5q64 0 105 -41t41 -103 q0 -14 -3 -29q-1 -10 -9.5 -16t-18.5 -4q-10 1 -16 9.5t-4 18.5q2 16 2 21q-1 42 -27 68t-70 27h-3q-48 0 -90 -36q-44 -38 -52 -88q-2 -7 -2 -21q0 -48 33 -73q10 -8 10 -18q0 -8 -6 -17l-2 -1l-1 -1l-2 -2q-1 -1 -2.5 -2t-2.5 -1q-52 -23 -88.5 -68.5t-45.5 -98.5 q-3 -15 -3 -31q1 -63 41.5 -103t105.5 -41h3q73 0 136 54q64 54 77 130q3 17 3 32v6q-9 1 -25 1q-96 0 -132 -44q-22 -24 -22 -58q0 -4 1 -5v-1q1 -10 -5 -18t-16 -9h-4q-9 0 -15.5 6t-8.5 15q0 5 -1 12q3 54 33 90q51 61 170 61q5 0 16.5 -0.5t17.5 -0.5q1 -1 5 -1 q30 0 47 16q21 18 21 54v7q-1 10 6 17.5t17 8.5z" />
<glyph unicode="'" horiz-adv-x="230" d="M70 524q2 8 11 13q57 28 64 77q-21 6 -21 25q0 5 1 10l4 21q4 14 16 23.5t25 9.5q14 0 22 -10q4 -7 4 -14q0 -4 -1 -9l-5 -25q-16 -77 -48 -104q-41 -32 -60 -32q-12 0 -12 10v5z" />
<glyph unicode="(" d="M92 30q-15 51 -15 119q0 69 16 156q29 170 96 275q79 125 196 125q11 0 18 -9q5 -6 5 -14q0 -14 -12 -24q-10 -9 -21 -9q-79 -1 -140 -93q-58 -91 -87 -251q-14 -82 -14 -146q0 -61 13 -105q15 -48 40 -70.5t67 -22.5q11 0 18 -8.5t5 -19.5q-2 -12 -12 -20t-21 -8h-2 q-58 0 -96 34t-54 91z" />
<glyph unicode=")" d="M379 580q15 -51 15 -119q0 -69 -16 -156q-29 -170 -96 -275q-79 -125 -196 -125q-11 0 -18 9q-5 6 -5 14q0 14 12 24q10 9 21 9q79 1 140 93q58 91 87 251q14 82 14 146q0 61 -13 105q-28 93 -107 93q-11 0 -18 8.5t-5 19.5q2 12 12 20t21 8h2q58 0 96 -34t54 -91z" />
<glyph unicode="*" d="M186 422l27 109l-102 -62q-9 -6 -17 -6t-13 7q-4 4 -4 10q0 2 1 4q3 13 17 19l112 49l-94 49q-14 7 -11 19q4 19 24 21q6 0 15 -6l80 -62l11 109q1 9 8 15.5t16 6.5t13.5 -6.5t2.5 -15.5l-27 -109l102 62q9 6 17 6t13 -7q4 -4 4 -10q0 -2 -1 -4q-2 -13 -17 -19l-112 -49 l94 -49q13 -6 11 -19q-2 -8 -9 -14.5t-15 -6.5q-6 0 -15 6l-80 62l-11 -109q-1 -9 -8 -15.5t-16 -6.5t-13.5 6.5t-2.5 15.5z" />
<glyph unicode="+" horiz-adv-x="620" d="M522 381q13 0 22.5 -9.5t9.5 -23.5t-9.5 -23.5t-22.5 -9.5h-185l-33 -185q-5 -27 -32 -27h-6q-13 3 -20.5 14t-5.5 24l30 174h-173q-13 0 -23 9.5t-10 23.5t10 23.5t23 9.5h185l33 185q2 14 13 22q9 5 18 5q3 0 7 -1q13 -2 20.5 -13t5.5 -24l-31 -174h174z" />
<glyph unicode="," horiz-adv-x="230" d="M56 -89q2 8 11 13q57 28 64 77q-21 6 -21 25q0 5 1 10l4 21q4 14 16 23.5t25 9.5q14 0 22 -10q4 -7 4 -14q0 -4 -1 -9l-5 -25q-16 -77 -48 -104q-41 -32 -60 -32q-12 0 -12 10v5z" />
<glyph unicode="-" horiz-adv-x="408" d="M85 328q-19 0 -19 20q0 18 19 18h213q19 0 19 -18q0 -9 -5.5 -14.5t-13.5 -5.5h-213z" />
<glyph unicode="." horiz-adv-x="230" d="M201 58q-5 -25 -23 -41.5t-43 -16.5t-39 16q-9 13 -9 29q0 6 1 13q5 24 23.5 40.5t42.5 16.5q25 0 38 -17q10 -12 10 -28q0 -6 -1 -12z" />
<glyph unicode="/" horiz-adv-x="500" d="M12 1q-16 8 -16 21q0 6 3 12l273 648q8 15 21 15q5 0 11 -2q10 -4 14 -13q1 -4 1 -9t-2 -10l-273 -648q-6 -15 -22 -15q-7 0 -10 1z" />
<glyph unicode="0" horiz-adv-x="710" d="M372 700q89 0 143 -79q50 -74 50 -188q0 -39 -8 -87l-24 4l24 -4q-24 -139 -110 -242q-89 -104 -189 -104h-1q-87 0 -142 80q-50 75 -50 187q0 39 8 87q26 143 110 242q89 104 189 104zM509 354q7 39 7 79q0 99 -42 160q-40 58 -102 58q-79 0 -152 -86q-77 -91 -99 -219 q-7 -38 -7 -79q0 -99 42 -160q40 -58 102 -58q79 0 152 87q76 89 99 218z" />
<glyph unicode="1" horiz-adv-x="335" d="M232 672l-115 -652q-4 -20 -24 -20q-2 0 -4 1q-10 1 -16 9.5t-4 18.5l106 601l-106 -57q-5 -3 -11 -3q-14 0 -22 13q-4 8 -4 14q0 12 14 19l151 81v1q2 0 3 1h2l2 1h3h2h2h1q1 0 2 -1h2l2 -1l2 -1l2 -1l2 -2l2 -2q0 -1 2 -1q0 -2 1 -2q0 -1 1 -2v-1q1 0 1 -2l1 -1v-1v-2 v-3v-0.5v-1.5v-3z" />
<glyph unicode="2" horiz-adv-x="590" d="M572 508q-1 -57 -29 -112t-78 -94l-322 -252h322q10 0 17.5 -7t7.5 -17t-7 -17.5t-18 -7.5h-390h-2h-1q-13 0 -20 10q-5 6 -5 13q0 14 10 21l378 295q42 33 65 78t23 90q0 50 -27 87q-42 57 -120 57q-70 0 -132 -47l-39 -32q-8 -6 -18.5 -4.5t-16.5 9.5t-5 18t9 16l40 31 q74 58 162 58q103 0 159 -77q37 -50 37 -116z" />
<glyph unicode="3" horiz-adv-x="610" d="M587 664q-4 -6 -7 -8l-214 -186q69 -15 108 -64q44 -52 44 -122q0 -22 -4 -46q-16 -99 -99 -168q-84 -70 -180 -70h-1q-98 0 -155 70q-5 5 -4 12q0 13 10 23q9 7 19.5 7t16.5 -7q45 -54 122 -54t143 54q65 56 78 133q3 18 3 35q0 56 -34 97q-45 55 -123 55q-11 0 -18 10 h-1q-6 7 -6 15q0 10 12 21l206 179h-268q-10 0 -16.5 7t-4.5 18t11 18t19 7h327q11 0 17 -8q4 -5 4 -12q0 -2 -1 -5q0 -5 -4 -11z" />
<glyph unicode="4" horiz-adv-x="664" d="M554 194q10 0 17.5 -7t7.5 -17t-7.5 -17.5t-17.5 -7.5h-51l-22 -124q-4 -20 -24 -20q-3 0 -4 1q-10 1 -16 9.5t-4 18.5l20 115h-377h-1h-1q-10 0 -17 7q-9 9 -9 17.5t9 17.5l497 507q1 0 1 1q1 0 3 2q0 1 2 1q0 1 2 1l1 1h1q2 0 3 1h2h2h4h1q6 -2 9 -4l2 -2q1 -1 2 -1 l1 -1l2 -2v-1l1 -2q1 0 1 -2q1 0 1 -2q0 -1 1 -2v-3v-2v-5l-85 -478h43zM132 194h330l72 409z" />
<glyph unicode="5" horiz-adv-x="605" d="M554 699q11 0 18.5 -7.5t7.5 -17.5t-7.5 -17.5t-18.5 -7.5h-309l-61 -204q60 29 119 29q100 0 158 -71q45 -55 45 -129q0 -56 -26.5 -110.5t-74.5 -96.5q-82 -68 -178 -68q-99 0 -158 71q-6 7 -6 16q0 12 9 20q9 7 17 7q11 0 19 -11q42 -53 119 -53q79 0 145 57 q40 34 62 78.5t22 89.5q0 57 -34 97q-42 53 -119 53q-79 0 -145 -57q-8 -7 -18.5 -6t-17.5 9q-5 7 -5 14q-2 5 0 11l85 285q3 10 13 15q5 4 13 4h326z" />
<glyph unicode="6" horiz-adv-x="642" d="M335 464q85 0 143 -56q56 -56 56 -139q0 -12 -4 -40l-24 4l24 -4q-17 -95 -94.5 -160.5t-173.5 -66.5q-86 0 -142 56t-56 139q0 10 1 15v3q12 171 103 310q112 170 288 177h2q9 0 16 -6q7 -7 7 -17q1 -10 -6 -17.5t-17 -8.5q-149 -5 -249 -155q-29 -46 -54 -107 q79 73 180 73zM482 237q3 17 3 32q-1 64 -42 104.5t-108 41.5h-1q-76 0 -140.5 -55t-77.5 -131q-3 -16 -3 -32q1 -64 42 -104.5t107 -41.5h3q74 0 139 55t78 131z" />
<glyph unicode="7" horiz-adv-x="587" d="M503 665l-1 -1l-389 -651q-6 -12 -21 -12q-7 0 -12 4q-9 5 -12 15v6q0 7 3 12l367 614h-334q-10 0 -17 7.5t-7 17.5t7 17t17 7h377h2h3q0 -1 2 -1q1 0 2 -1q2 0 3 -1h1v-1l1 -1h2l1 -1v-1l2 -2l1 -1l2 -2q0 -2 1 -2q0 -2 1 -3v-2q0 -1 1 -2v-3v-2q0 -2 -1 -2v-3 q0 -1 -1 -2v-1q-1 -1 -1 -2z" />
<glyph unicode="8" horiz-adv-x="630" d="M409 435q29 -14 52 -36q55 -55 55 -137q0 -20 -3 -39q-17 -93 -93 -157.5t-170 -65.5q-83 0 -140 55q-55 55 -55 136q0 23 4 40q13 71 62 127t117 80l-7 7q-35 35 -35 88q0 17 2 26q11 59 59 99.5t108 41.5q55 0 91 -36q35 -35 35 -88q0 -17 -2 -26q-14 -75 -80 -115z M221 554l24 -4q-1 -6 -1 -17q0 -33 21 -54t57 -22h3q39 0 74 30q36 31 43 72q1 6 1 17q0 33 -21 54t-57 22h-3q-39 0 -74 -30q-36 -31 -43 -72zM465 231q3 17 3 31q-1 63 -41 103t-106 41q-74 0 -138 -54.5t-77 -128.5l-23 4l23 -4q-3 -17 -3 -32q1 -62 41.5 -102t105.5 -41 h3q72 0 135 54q64 54 77 129z" />
<glyph unicode="9" horiz-adv-x="642" d="M479 644q56 -54 56 -139v-14v-4q-14 -172 -104 -309q-112 -171 -287 -178h-1q-10 0 -17 7t-8 17q0 10 7 17.5t17 7.5q150 7 248 156q32 48 54 106q-78 -71 -180 -73q-86 0 -142 56q-56 54 -56 139q0 21 3 40q17 95 95 160.5t173 66.5q86 0 142 -56zM264 287h3 q74 0 138 55q65 55 78 131q3 17 3 32q-1 64 -41.5 104.5t-107.5 41.5h-3q-74 0 -138 -55q-65 -55 -78 -131l-24 4l24 -4q-3 -17 -3 -32q1 -64 41.5 -104.5t107.5 -41.5z" />
<glyph unicode=":" horiz-adv-x="240" d="M255 563q-2 -15 -14.5 -25.5t-27.5 -10.5t-23.5 10.5t-5.5 25.5q2 15 14.5 25.5t27.5 10.5q14 0 23 -11q7 -7 7 -18q0 -3 -1 -7zM162 34q-3 -14 -15 -24.5t-27 -10.5t-24 11q-6 7 -6 17q0 3 1 7q2 15 14.5 25.5t26.5 10.5q15 0 24 -10q6 -9 6 -20v-6z" />
<glyph unicode=";" horiz-adv-x="240" d="M237 600q14 0 23 -10q6 -9 6 -20v-6q-2 -14 -15 -24.5t-27 -10.5q-15 0 -23.5 10.5t-5.5 24.5q2 15 14 25.5t28 10.5zM60 -88q0 8 9 13q55 29 55 77q-23 6 -23 29v6l2 21q1 14 12 23.5t25 9.5t22 -9q7 -8 7 -19v-5l-2 -25q-8 -76 -39 -104q-14 -13 -31 -22.5t-24 -9.5 q-15 0 -13 15z" />
<glyph unicode="&#x37e;" horiz-adv-x="240" d="M237 600q14 0 23 -10q6 -9 6 -20v-6q-2 -14 -15 -24.5t-27 -10.5q-15 0 -23.5 10.5t-5.5 24.5q2 15 14 25.5t28 10.5zM60 -88q0 8 9 13q55 29 55 77q-23 6 -23 29v6l2 21q1 14 12 23.5t25 9.5t22 -9q7 -8 7 -19v-5l-2 -25q-8 -76 -39 -104q-14 -13 -31 -22.5t-24 -9.5 q-15 0 -13 15z" />
<glyph unicode="&#x3c;" horiz-adv-x="620" d="M446 692q8 7 18 7h3q12 -1 19 -10q7 -8 7 -18q0 -14 -10 -23l-354 -303l244 -299q7 -10 6 -21.5t-10 -19.5q-7 -6 -18 -6q-15 0 -22 10l-263 322q0 1 -2 3v1q-2 2 -2 4l-1 1v4q-1 1 -1 2v3v2q0 2 1 3v3q0 1 0.5 1t0.5 1v1l1 2q1 1 1 2q2 2 2 3l1 1l3 3z" />
<glyph unicode="=" horiz-adv-x="620" d="M477 267q13 0 21 -8.5t8 -19.5q0 -12 -8 -20.5t-21 -8.5h-370q-11 0 -19.5 8.5t-8.5 20.5q0 11 8.5 19.5t19.5 8.5h370zM517 490q11 0 19.5 -8.5t8.5 -19.5q0 -12 -8.5 -20.5t-19.5 -8.5h-370q-12 0 -20.5 8t-8.5 21q0 11 8.5 19.5t20.5 8.5h370z" />
<glyph unicode="&#x3e;" horiz-adv-x="620" d="M522 338q-1 -1 -1 -2q-2 -2 -2 -3q-1 0 -1 -0.5t-1 -0.5q0 -1 -2 -3l-376 -321q-7 -7 -18 -7q-13 0 -22 10q-7 8 -7 18q0 14 10 22l354 303l-244 300q-7 9 -6 20.5t10 19.5q8 7 18 7h3q12 -1 19 -11l263 -321q1 -1 1 -2t1 -2q2 -4 2 -5q1 0 1 -1q0 -2 1 -4v-1v-3v-3 q0 -1 -1 -2v-3q0 -1 -0.5 -1t-0.5 -1t-1 -1v-2z" />
<glyph unicode="?" horiz-adv-x="534" d="M139 68q10 -2 15.5 -10t3.5 -17l-4 -22q-3 -20 -23 -20q-2 0 -4 1q-9 2 -14.5 9.5t-4.5 17.5l4 22q2 9 10 14.5t17 4.5zM247 699q80 0 132 -52q53 -51 53 -130q0 -12 -4 -38q-15 -83 -80.5 -142.5t-149.5 -67.5l-19 -111q-3 -20 -23 -20q-3 0 -4 1q-10 1 -15.5 9t-3.5 18 l22 125q0 1 1 2q2 21 23 21h3q68 0 128 50q60 52 72 123q3 17 3 30q-1 59 -38.5 97t-99.5 39q-47 0 -91 -23.5t-74 -63.5q-6 -8 -15.5 -9t-17.5 5q-9 6 -9 17q0 8 5 15q36 48 89.5 76.5t112.5 28.5z" />
<glyph unicode="@" horiz-adv-x="980" d="M136 84q-83 83 -83 209q0 26 5 61q26 144 144 244.5t263 101.5q129 0 214 -85q84 -82 84 -209q0 -30 -6 -61q-15 -85 -66 -159l-8 -10q-8 -9 -19.5 -20t-31.5 -23.5t-41 -17.5q-14 -2 -20 -2h-2q-30 0 -48 23q-13 17 -13 44v12l4 24q-61 -54 -133 -54q-66 0 -109 46 q-42 46 -42 108q0 26 3 38q14 76 73 129t133 54q66 0 109 -46q42 -44 42 -111q0 -17 -3 -35q-1 -2 -1 -4t-1 -4v-3l-26 -149q0 -1 -1 -3v-2q0 -10 4 -14q3 -4 11 -4q5 0 9 1q21 4 41.5 21.5t28.5 29.5l1 1q47 67 58 139q5 30 5 52q-1 107 -70 175.5t-179 69.5 q-125 0 -231 -90t-128 -216q-4 -24 -4 -52q0 -106 69 -175t179 -70q35 0 77 10q10 2 18.5 -3t10.5 -15q3 -10 -2.5 -19t-15.5 -11q-40 -10 -88 -10q-130 0 -214 84zM279 345q-3 -13 -3 -26q1 -48 29 -77.5t74 -30.5h2q53 0 99 41q47 43 57 102q2 9 2 26q-1 48 -28.5 77.5 t-73.5 30.5h-2q-53 0 -99.5 -42.5t-56.5 -100.5z" />
<glyph unicode="A" horiz-adv-x="646" d="M518 182h-321l-93 -169q-6 -13 -21 -13q-6 0 -12 3q-14 8 -14 20q0 6 4 13l360 651q6 13 22 13q22 0 25 -20l130 -651q1 -3 1 -5q0 -7 -5 -14q-5 -8 -15 -10h-5q-21 0 -24 20zM508 231l-75 377l-209 -377h284z" />
<glyph unicode="B" horiz-adv-x="594" d="M126 1q-20 5 -20 22q0 3 1 7l114 651q5 20 26 20h1h153q65 0 108 -43q42 -40 42 -105q0 -15 -3 -30q-15 -85 -89 -134q33 -14 56 -37q48 -46 48 -114v-6q0 -17 -3 -35q-15 -82 -81 -138.5t-149 -57.5h-197h-1h-1h-5zM515 232q-1 52 -34.5 85.5t-88.5 34.5h-179l-53 -302 h170h3q61 0 114 46q54 46 65 109q3 13 3 27zM502 553q-1 44 -28.5 71t-72.5 28h-135l-44 -250h126h3q51 0 95 38q46 39 54 91q2 8 2 22z" />
<glyph unicode="C" horiz-adv-x="719" d="M379 0q-133 0 -220 84q-86 84 -86 211q0 34 5 59q26 145 147 245t269 101q125 0 212 -77q9 -7 9 -19q0 -9 -7 -16q-8 -10 -18 -10q-8 0 -16 8q-73 65 -180 65h-3q-127 0 -235 -89q-108 -91 -130 -216q-4 -24 -4 -51q0 -107 71.5 -176t185.5 -70q109 0 207 66q8 6 15 6 q10 0 19 -12q6 -8 6 -15q0 -10 -12 -19q-110 -75 -235 -75z" />
<glyph unicode="D" horiz-adv-x="719" d="M126 -1q-20 4 -20 24v5l115 651q1 9 8 14.5t16 5.5h1h130q130 0 214 -84q83 -83 83 -209q0 -26 -5 -61q-26 -144 -144 -244.5t-263 -101.5h-130h-1h-4zM266 650l-106 -602h101h3q123 0 228 90q106 90 128 215q4 24 4 53q-1 106 -69.5 174.5t-178.5 69.5h-110z" />
<glyph unicode="E" horiz-adv-x="593" d="M126 -2q-20 4 -20 24v5l115 651q3 20 25 20h1h359q10 0 17 -7.5t7 -17.5t-7 -17t-17 -7h-340l-49 -277h290q10 0 17 -7t7 -17t-7 -17.5t-17 -7.5h-299l-49 -276h332q10 0 17 -7.5t7 -17.5t-7 -17t-17 -7h-359h-1h-1h-4z" />
<glyph unicode="F" horiz-adv-x="600" d="M126 2q-20 5 -20 22q0 3 1 7l114 651q3 20 25 20h2h358q10 0 17 -7.5t7 -17.5t-7 -17t-17 -7h-340l-49 -277h290q10 0 17 -7t7 -17t-7 -17.5t-17 -7.5h-298l-54 -305q-1 -9 -8 -14.5t-16 -5.5h-5z" />
<glyph unicode="G" horiz-adv-x="800" d="M380 2q-134 0 -220 84q-87 84 -87 211q0 29 6 59q17 95 78 174.5t150.5 125.5t187.5 46q125 0 212 -77q9 -7 9 -18q0 -10 -7 -17q-7 -8 -17 -8.5t-18 6.5q-72 65 -179 65h-3q-127 0 -235 -89q-109 -91 -130 -216q-5 -30 -5 -51q1 -107 72.5 -176t185.5 -70q103 0 199 61 l35 201h-185q-10 0 -17 7t-7 17t7 17.5t17 7.5h212h1q4 0 5 -1q10 -1 16 -9.5t4 -18.5l-42 -238q0 -3 -2 -7q0 -1 -1 -1v-1q-5 -7 -8 -9q-109 -75 -234 -75z" />
<glyph unicode="H" horiz-adv-x="760" d="M249 697q10 -1 16 -9.5t4 -18.5l-52 -297h359l54 305q1 10 10 16q6 5 13 5q3 0 5 -1q10 -1 16 -9q4 -7 5 -14q0 -3 -1 -5l-115 -651q-1 -9 -8 -14.5t-16 -5.5h-4q-10 1 -16 9.5t-4 18.5l52 297h-359l-54 -305q-3 -20 -24 -20h-4q-10 1 -16 9.5t-4 18.5l115 651q1 10 9 16 q7 5 14 5q3 0 5 -1z" />
<glyph unicode="I" horiz-adv-x="305" d="M137 -2h-4q-10 1 -16 9.5t-4 18.5l115 651q1 10 10 16q6 5 13 5q3 0 5 -1q10 -1 16 -9.5t4 -18.5l-115 -651q-3 -20 -24 -20z" />
<glyph unicode="J" horiz-adv-x="594" d="M93 174q8 -56 49 -91t103 -35h3q77 0 143 56q67 57 81 136l77 438q1 10 9 16q7 4 14 5q3 0 5 -1q10 -1 16 -10q5 -6 5 -13q0 -3 -1 -5l-77 -438q-18 -98 -97.5 -165.5t-177.5 -67.5h-1q-78 0 -134 47q-27 24 -43.5 56t-19.5 46.5t-3 21.5q0 8 5 15q6 8 16 10t18.5 -4.5 t9.5 -16.5z" />
<glyph unicode="K" horiz-adv-x="715" d="M249 701q10 -1 16 -9.5t4 -18.5l-70 -400l497 423q6 5 14 5h3q10 -1 17 -8q6 -6 6 -15q0 -12 -9 -20l-318 -271l225 -348q6 -8 3.5 -18t-10.5 -16q-6 -3 -13 -3q-14 0 -21 11l-222 343l-185 -158h-1l-31 -176q-3 -20 -24 -20h-4q-10 1 -16 9.5t-4 18.5l115 651q1 10 9 16 q7 5 14 5q3 0 5 -1z" />
<glyph unicode="L" horiz-adv-x="619" d="M515 23q0 -10 -7 -17t-18 -7h-358h-1h-1h-4q-10 1 -16 9.5t-4 18.5l115 651q1 10 9 16q7 4 14 5q3 0 5 -1q10 -1 16 -9.5t4 -18.5l-110 -623h331q10 0 17.5 -7t7.5 -17z" />
<glyph unicode="M" horiz-adv-x="868" d="M668 -1q-10 1 -16 9.5t-4 18.5l101 569l-279 -310q-6 -8 -18 -8h-1h-2q-15 0 -21 13l-170 312l-103 -584q-1 -9 -8 -14.5t-16 -5.5h-5q-10 1 -16 9.5t-4 18.5l115 651q2 9 9 15q6 5 13 5h3h3q12 0 20 -12l186 -344l312 348q7 8 15 8h4q2 1 3 1t2 -1q10 -1 16 -10 q5 -6 5 -13q0 -3 -1 -5l-115 -651q-3 -20 -24 -20h-4z" />
<glyph unicode="N" horiz-adv-x="790" d="M106 30l114 648l1 1q0 11 12 20q8 4 14 4q12 0 19 -14l322 -591l102 580q1 10 9.5 16t18.5 4q20 -4 20 -24v-5l-114 -647q-1 -9 -8.5 -14.5t-15.5 -5.5h-4q-11 1 -18 12q0 2 -2 4l-319 586l-103 -582q-3 -20 -24 -20h-4q-10 1 -16 9.5t-4 18.5z" />
<glyph unicode="O" horiz-adv-x="850" d="M467 700q122 0 201 -84q78 -83 78 -206q0 -32 -6 -65l-24 5l24 -5q-26 -144 -138.5 -244.5t-249.5 -100.5q-123 0 -201 83q-78 81 -78 206q0 32 6 65q26 144 138 244.5t250 101.5zM692 354q5 32 5 56q-1 105 -65 172.5t-165 68.5h-2q-116 0 -216 -90t-122 -216 q-5 -32 -5 -56q1 -105 65 -172.5t165 -68.5q117 0 217.5 90t122.5 216z" />
<glyph unicode="P" horiz-adv-x="583" d="M245 700h1h197q74 0 123 -49q48 -46 48 -120q0 -17 -3 -35q-15 -82 -81.5 -138.5t-148.5 -57.5h-178l-49 -280q-3 -20 -24 -20q-3 0 -4 1q-10 1 -16 9.5t-4 18.5l115 651q1 9 8 14.5t16 5.5zM565 531q0 53 -33.5 86t-88.5 34h-178l-53 -302h169h3q60 0 114 45 q55 47 65 110q2 9 2 27z" />
<glyph unicode="Q" horiz-adv-x="844" d="M764 -50q3 -6 3 -12q0 -12 -14 -23q-86 -59 -168 -59h-1q-76 0 -164 57q-32 22 -79 22q-30 0 -58.5 -8t-38.5 -14h-1q-15 -8 -27 2h-1q-5 8 -6 11q-1 4 -1 8q0 17 20 26l100 42q-122 17 -188 118q-49 74 -49 166q0 33 6 67q26 147 142.5 251.5t255.5 105.5q92 -1 161 -49 t99 -130q19 -52 19 -110q0 -33 -6 -68q-19 -107 -92 -196t-171 -131l-109 -46q30 -6 56 -24q78 -51 140 -51q63 0 138 49q9 7 19 6t15 -10zM146 353q-5 -31 -5 -59q0 -89 51 -156q69 -90 187 -90q117 0 217.5 89.5t122.5 215.5q6 32 6 62q0 88 -52 155q-69 90 -187 90 q-117 0 -217 -89.5t-123 -217.5z" />
<glyph unicode="R" horiz-adv-x="625" d="M480 186q-1 50 -46 84q-28 20 -67 30h-2h-175l-49 -280q-4 -20 -24 -20q-3 0 -5 1q-10 1 -16 9.5t-4 18.5l115 651q3 20 25 20h1h196q76 0 123 -49q49 -47 49 -120q0 -17 -3 -35q-11 -60 -51 -107.5t-96 -71.5q77 -46 77 -129q0 -13 -2 -35q-7 -36 -7 -61q0 -24 5 -32h3 q17 0 23 -18q3 -10 -2 -18.5t-15 -11.5q-2 -2 -11 -2h-1q-22 0 -36 20q-15 21 -15 62q0 29 7 70q3 12 3 24zM252 651l-53 -302h168h3q61 0 114 45q55 47 66 110q2 18 2 27q-1 53 -34.5 86t-88.5 34h-177z" />
<glyph unicode="S" horiz-adv-x="667" d="M73 100q-6 5 -6 13q0 9 8 17q7 7 16 8t15 -5q96 -89 210 -89q89 0 160 46q68 44 77 103q2 9 2 18q0 43 -41 75q-46 35 -150 56h-2q-101 20 -152 58q-52 38 -52 95q0 13 3 26q13 77 94 129q77 50 174 50q42 0 83 -14t63 -28t54 -38q8 -6 8 -13q0 -8 -7 -17 q-10 -11 -19 -11l-13 5q-33 24 -52 36t-54 24.5t-70 12.5q-81 0 -147 -42q-62 -41 -71 -94q-2 -8 -2 -16q0 -40 38 -68q47 -35 138 -52h2q108 -21 164 -63q55 -41 55 -103q0 -12 -2 -26q-15 -84 -102 -138q-84 -55 -187 -55q-132 1 -235 100z" />
<glyph unicode="T" horiz-adv-x="648" d="M191 2q-10 1 -16 9.5t-4 18.5l109 622h-206q-10 0 -17 7.5t-7 17.5t7 17t17 7h471q10 0 17 -7t7 -17t-7 -17.5t-17 -7.5h-215l-111 -631q-4 -20 -24 -20q-3 0 -4 1z" />
<glyph unicode="U" horiz-adv-x="814" d="M724 701q20 -4 20 -24v-5l-70 -392q-21 -116 -116 -197t-211 -82h-1q-103 0 -173 68q-68 68 -68 170q0 21 5 49l69 393q1 10 9 16q7 5 14 5q3 0 5 -1q20 -4 20 -24v-5l-69 -392q-4 -19 -4 -41q1 -82 54 -135t139 -54h3q95 0 177 70q83 71 99 168l70 393q1 10 10 16 q6 5 13 5q3 0 5 -1z" />
<glyph unicode="V" horiz-adv-x="750" d="M653 664l-389 -651l-1 -1l-3 -3q0 -1 -0.5 -1t-0.5 -1l-1 -1q-2 0 -2 -1l-1 -1h-1l-2 -1q-1 -1 -2 -1h-1q-2 -1 -6 -1t-6 1h-1q-4 2 -5 3h-1q0 1 -1 1t-2 1l-1 1l-3 3q-2 3 -4 9l-159 651q-1 4 -1 7q0 6 3 12q6 8 16 10q4 1 7 1q6 0 11 -3q9 -5 11 -15l145 -594l359 600 q5 9 15 11q3 1 6 1q7 0 12 -3q9 -5 12 -15v-7q0 -6 -3 -12z" />
<glyph unicode="W" horiz-adv-x="1102" d="M1061 662l-389 -651l-1 -1l-3 -3q0 -1 -0.5 -1t-0.5 -1q-1 0 -3 -2l-1 -1h-1q-1 -1 -4 -1l-1 -1h-4q-1 0 -1 -0.5t-1 -0.5t-3 0.5t-3 0.5h-1q-4 2 -5 3h-1q-2 2 -3 2l-1 1q-2 2 -2 3q-1 0 -1 1q-2 2 -2 3q-1 1 -1 2.5t-1 2.5l-103 423l-257 -430l-1 -1q0 -2 -3 -3 q0 -1 -0.5 -1t-0.5 -1q-1 0 -3 -2q-1 0 -1 -0.5t-1 -0.5q-1 -1 -4 -1l-1 -1h-4h-1l-1 -1q-1 0 -3 0.5t-3 0.5h-1q-4 2 -5 3h-1q-2 2 -3 2l-1 1q-2 2 -2 3q-1 0 -1 1q-2 2 -4 8l-159 651q-1 4 -1 8q0 16 19 22q3 1 6 1q6 0 13 -4q8 -5 10 -15l146 -594l254 426q8 12 22 12 q9 1 16.5 -4.5t9.5 -13.5l103 -420l358 600q5 9 15 11q3 1 7 1q6 0 12 -3q13 -8 13 -19q0 -7 -5 -15z" />
<glyph unicode="X" horiz-adv-x="722" d="M426 345l172 -310q4 -8 4 -14q0 -12 -14 -20q-6 -3 -12 -3q-14 0 -21 13l-164 296l-272 -301q-8 -8 -19 -8q-9 0 -16 7q-10 8 -10 18q0 8 8 16l284 313l-172 310q-5 9 -2 18.5t11 14.5q9 5 19 2.5t15 -11.5l164 -296l272 300q7 8 17 8l1 1q9 0 16 -7q9 -7 9 -19 q0 -9 -7 -16z" />
<glyph unicode="Y" horiz-adv-x="604" d="M581 658l-294 -324l-55 -315q-1 -9 -8.5 -14.5t-15.5 -5.5h-5q-10 1 -16 9.5t-4 18.5l56 314l-178 321q-3 6 -3 11q0 4 1 7q3 10 11 15q9 5 19 2.5t15 -11.5l165 -299l275 303q7 8 17 8l1 1q10 0 17 -7q10 -8 10 -18q0 -8 -8 -16z" />
<glyph unicode="Z" horiz-adv-x="667" d="M572 47q10 0 17 -7t7 -17t-7 -17.5t-17 -7.5h-476h-1q-1 0 -2 0.5t-2 0.5h-2q-1 1 -2 1t-1 0.5t-1 0.5l-2 1l-2 2q-1 0 -2 1l-2 2q0 1 -0.5 1t-0.5 1q-1 0 -1 2q-1 1 -1 2q-1 1 -1 2l-1 2v3l-1 2v1l1 1v3v2q1 1 1 3q1 0 1 2q1 0 1 2l2 2q0 1 1 1l553 610h-420 q-11 0 -18 7.5t-7 17.5t7.5 17t17.5 7h476h1h3q1 0 2 -1h2l1 -1q2 0 2 -1h1q2 -2 3 -2l1 -1q2 -2 2 -3q1 0 1 -0.5t1 -0.5q0 -2 1 -2l1 -2q0 -2 1 -2v-3q1 0 1 -2v-3v-2v-2q-1 -1 -1 -3l-1 -2q0 -1 -1 -2q0 -2 -1 -2l-1 -2q-1 -1 -1 -2l-554 -610h421z" />
<glyph unicode="[" d="M101 -104l163 778q2 10 11.5 18t20.5 8h232q7 0 12 -6q4 -3 4 -9q0 -2 -1 -4q-1 -7 -8.5 -13t-15.5 -6h-212l-157 -754h212q7 0 11.5 -5.5t2.5 -13.5q-1 -7 -8 -13t-15 -6h-232q-10 0 -16 8q-5 5 -4 13v5z" />
<glyph unicode="\" horiz-adv-x="500" d="M320 3q-3 -1 -10 -1q-16 0 -22 15l-273 648q-2 5 -2 10t1 9q4 9 14 13q6 2 11 2q13 0 21 -15l273 -648q3 -6 3 -12q0 -13 -16 -21z" />
<glyph unicode="]" d="M499 674l-163 -778q-2 -10 -11.5 -18t-20.5 -8h-232q-7 0 -12 6q-4 3 -4 9q0 2 1 4q1 7 8.5 13t15.5 6h212l157 754h-212q-7 0 -11.5 5.5t-2.5 13.5q1 7 8 13t15 6h232q10 0 16 -8q5 -5 4 -13v-5z" />
<glyph unicode="^" horiz-adv-x="500" d="M278 659l-148 -157q-13 -14 -37 -14q-6 0 -9.5 3.5t-2.5 7.5q0 5 7 13l164 176q18 18 31 18h8q14 0 25 -18l102 -176q3 -6 3 -13q-2 -11 -17 -11q-26 0 -34 14z" />
<glyph unicode="_" horiz-adv-x="600" d="M-5 -160q-9 0 -13 6q-3 4 -3 9q0 3 1 7q2 9 10.5 15.5t17.5 6.5h604q9 0 14 -6q3 -5 3 -11q0 -2 -1 -5q-3 -9 -11.5 -15.5t-17.5 -6.5h-604z" />
<glyph unicode="`" horiz-adv-x="500" d="M271 592q-18 0 -30 13l-69 77q-8 10 -8 17q0 8 16 17q15 7 29 7q16 0 25 -18l49 -93q3 -5 2 -11q0 -9 -14 -9z" />
<glyph unicode="a" horiz-adv-x="619" d="M235 0q-85 0 -141 59q-54 57 -54 144q0 25 4 45q18 100 95.5 169.5t173.5 70.5q85 0 141 -59q18 -20 29 -40l14 79q2 10 9 16q7 4 15 4h3q10 -2 15.5 -10t4.5 -18l-78 -440q-3 -20 -24 -20h-4q-10 2 -15.5 10t-3.5 18l11 64q-81 -90 -195 -92zM91 240q-4 -17 -4 -37 q1 -68 42 -111t106 -44h3q74 0 140 58q66 59 80 142q3 19 3 37q-1 68 -41.5 111t-106.5 44h-1q-76 0 -141.5 -59t-79.5 -141z" />
<glyph unicode="b" horiz-adv-x="660" d="M115 -2q-20 5 -20 22q0 3 1 7l114 651q4 20 24 20h5q20 -4 20 -24v-5l-49 -273q84 90 200 92q89 0 146 -59q56 -58 56 -146q0 -24 -4 -44l-24 4l24 -4q-18 -101 -97.5 -170.5t-177.5 -70.5h-1q-88 0 -145 59q-18 20 -29 40l-14 -79q-1 -9 -8.5 -14.5t-15.5 -5.5h-5z M409 439q-78 0 -145.5 -59.5t-80.5 -140.5q-4 -17 -4 -36q1 -69 43 -112t111 -44h3q76 0 142 59q68 59 82 141q3 18 3 36q-1 69 -42.5 112t-110.5 44h-1z" />
<glyph unicode="c" horiz-adv-x="571" d="M58 208q0 22 4 41q18 101 101.5 170.5t186.5 70.5q90 0 150 -54q9 -9 9 -18q0 -8 -8 -16q-9 -10 -18 -10q-7 0 -15 8q-47 42 -118 42h-3q-82 0 -153 -59q-71 -60 -85 -142q-3 -18 -3 -33q0 -69 46.5 -113.5t120.5 -45.5q72 0 136 44q8 5 18 3t15 -10t5 -15q0 -10 -11 -18 q-78 -52 -163 -52q-93 0 -154 59t-61 148z" />
<glyph unicode="d" horiz-adv-x="660" d="M261 1q-88 0 -145 59q-56 58 -56 146q0 24 4 44q18 101 97.5 170.5t178.5 70.5q88 0 145 -59q12 -12 30 -40l50 289q2 10 11 15q7 5 15 5h3q20 -4 20 -24v-5l-115 -651q-1 -9 -8 -14.5t-16 -5.5h-4q-11 2 -16.5 10.5t-3.5 18.5l11 63q-85 -92 -200 -92h-1zM88 246l24 -4 q-3 -19 -3 -36q1 -69 42.5 -112t110.5 -44h3q76 0 143 58q68 60 82 142q3 18 3 36q-1 69 -43 112t-110 44h-3q-76 0 -143 -58q-68 -60 -82 -142z" />
<glyph unicode="e" horiz-adv-x="609" d="M58 205q0 24 4 45q18 100 97.5 169.5t178.5 70.5q87 0 144 -59t57 -145q0 -8 -2 -26q0 -1 -0.5 -3t-0.5 -3q-6 -19 -23 -19h-405q-2 -10 -2 -30q0 -68 42.5 -111.5t110.5 -44.5q50 0 97 24.5t80 65.5q7 8 16.5 9t17.5 -6q10 -8 10 -17q0 -7 -7 -15q-39 -50 -95.5 -79.5 t-118.5 -29.5h-1q-87 0 -144 59q-56 58 -56 145zM338 442h-3q-66 0 -127 -44q-61 -46 -87 -114h370v2q-1 68 -43 111.5t-110 44.5z" />
<glyph unicode="f" horiz-adv-x="362" d="M327 699q10 0 15 -7t5 -15q0 -11 -11 -20q-8 -7 -18 -7q-44 0 -65 -19q-23 -22 -34 -81l-9 -52h69q10 0 16 -7t4 -17q-1 -10 -9.5 -17.5t-18.5 -7.5h-69l-76 -426q-1 -10 -9.5 -17t-18.5 -7t-16 7t-4 17l75 426h-66q-10 0 -15 7t-5 15q0 11 11 20q8 7 18 7h65l9 52 q14 77 52 114q39 35 105 35z" />
<glyph unicode="g" horiz-adv-x="660" d="M257 -1q-86 0 -142 59q-55 57 -55 143q0 19 5 46q18 99 96 169.5t172 71.5q86 0 143 -59q18 -20 28 -41l14 80q4 20 22 20h5q11 -2 17 -10q4 -7 4 -14q0 -2 -1 -5l-39 -221l-36 -206q-18 -95 -95 -161t-171 -67q-55 0 -100 25q-9 4 -12 13.5t2 18.5q8 12 19 12q6 0 13 -3 q36 -18 78 -18h3q72 0 137 56q66 56 79 133l8 48q-85 -90 -193 -90h-1zM112 238q-4 -17 -4 -37q1 -69 42 -111.5t108 -42.5h3q73 0 138 57q66 59 80 143q4 16 4 35q-1 70 -42 113.5t-108 43.5h-1q-74 0 -140.5 -59.5t-79.5 -141.5z" />
<glyph unicode="h" horiz-adv-x="613" d="M93 22q0 4 1 5l114 651q2 11 10 16q7 5 14 5q2 0 5 -1q10 -1 16 -9.5t4 -18.5l-42 -248q70 66 162 68q74 0 126 -50q49 -49 49 -123q0 -17 -3 -35l-48 -263q-1 -9 -8 -14.5t-16 -5.5h-5q-10 2 -15.5 10t-3.5 18l48 263q2 20 2 27q-1 55 -35.5 89t-90.5 35h-3 q-62 0 -117 -47q-56 -47 -67 -112l-48 -263v-1q-1 -1 -1 -4l-1 -1q-1 -1 -1 -3q-1 0 -1 -0.5t-1 -0.5l-1 -2l-2 -2q0 -1 -2 -1l-1 -1l-2 -2q-1 0 -2 -1h-2l-2 -1h-3h-2h-3h-2q-8 2 -12 6q-8 8 -8 17z" />
<glyph unicode="i" horiz-adv-x="281" d="M116 0q-10 1 -16 10q-4 6 -4 12q0 3 1 5l77 443q1 10 9.5 15.5t18.5 4.5q20 -5 20 -22q0 -3 -1 -7l-78 -442q-3 -19 -23 -19h-4zM243 584q-3 -20 -24 -20h-4q-10 2 -15 10q-5 6 -5 13q0 2 1 5l4 23q1 9 10 15q6 4 13 5q2 0 4 -1q10 -1 16 -10q5 -6 5 -13q0 -3 -1 -5z" />
<glyph unicode="j" horiz-adv-x="249" d="M237 586q-1 -9 -7.5 -14.5t-14.5 -5.5h-5q-9 2 -14.5 10t-3.5 18l3 23q2 9 10 15q6 4 12 4l4 -1q24 -5 21 -27zM195 490q19 -3 19 -19q0 -4 -1 -8l-102 -574q-6 -33 -32 -55.5t-60 -23.5q-10 0 -17 7t-7 17t7 16.5t17 6.5h2q13 0 27 11q15 13 17 29l103 575q1 9 9 14 q6 5 13 5q2 0 5 -1z" />
<glyph unicode="k" horiz-adv-x="560" d="M451 -2q-13 0 -21 11l-145 224l-121 -102q0 -1 -1 -1l-19 -112q-5 -20 -24 -20h-5q-10 1 -16 9.5t-4 18.5l115 651q2 11 10 17q7 4 14 4q2 0 5 -1q10 -2 15.5 -10t3.5 -18l-81 -463l338 287q7 7 17.5 6t16.5 -9q8 -8 8 -16q0 -10 -10 -18l-225 -191l149 -230q6 -8 4 -18 t-11 -15q-5 -4 -13 -4z" />
<glyph unicode="l" horiz-adv-x="249" d="M126 0h-4q-10 1 -16 9.5t-4 18.5l115 651q1 10 10 16q6 5 13 5q3 0 5 -1q10 -1 16 -9.5t4 -18.5l-115 -651q-3 -20 -24 -20z" />
<glyph unicode="m" horiz-adv-x="951" d="M141 12q-1 0 -1 -1t-1 -2q0 -1 -1 -1q0 -1 -2 -3l-1 -1l-2 -2q-1 0 -1 -1q-2 0 -3 -1q-1 0 -1 -1h-3l-1 -1h-3h-2h-3h-1q-10 1 -16 9.5t-4 18.5l47 266v1l31 175q5 20 21 20q3 0 7 -1q10 -2 15.5 -9.5t3.5 -17.5l-6 -39q67 65 158 67q76 0 123 -49q24 -24 36 -56 q34 47 84.5 75.5t107.5 29.5q74 0 123 -49q48 -48 48 -120q0 -17 -3 -35l-47 -267q-3 -19 -24 -19h-4q-10 2 -15.5 10t-3.5 18l47 266q2 20 2 27q-1 53 -34.5 86.5t-88.5 34.5q-63 0 -117 -45t-65 -108q0 -1 -1 -1v-2l-47 -267q-3 -16 -18 -19h-4h-1h-3h-2q-10 1 -15.5 9.5 t-3.5 18.5l47 266q0 2 1 3q2 16 2 24q-1 53 -34.5 86.5t-89.5 34.5h-3q-61 0 -115 -46t-65 -110l-47 -267q0 -3 -1 -4v-1z" />
<glyph unicode="n" horiz-adv-x="613" d="M445 28l46 264q2 20 2 27q-1 53 -34 86.5t-89 34.5h-3q-60 0 -113 -46q-55 -46 -66 -109l-46 -266q0 -1 -0.5 -2t-0.5 -2l-1 -1v-1q-1 -1 -1 -2l-1 -1l-1 -1q-1 -1 -1 -2q-1 0 -1 -1l-2 -2q-1 0 -1 -1q-2 0 -3 -1q-1 0 -1 -1h-3q-1 -1 -2 -1h-2h-2h-3h-2q-10 1 -16 10 q-4 6 -4 13q0 2 1 5l47 264v1l30 175q2 10 10 15.5t18 3.5q10 -1 16 -9t4 -18l-7 -39q69 65 157 67q76 0 123 -49q48 -48 48 -120q0 -17 -3 -35l-47 -265q-3 -19 -24 -19h-3q-10 2 -15.5 10t-3.5 18z" />
<glyph unicode="o" horiz-adv-x="625" d="M541 286q0 -25 -4 -46l-23 5l23 -5q-18 -100 -96 -170t-174 -70h-1q-85 0 -141 59q-55 58 -55 145q0 24 4 45q18 100 96.5 170t174.5 71q85 0 142 -60q54 -56 54 -144zM490 249q4 24 4 37q-1 68 -42 111.5t-107 44.5h-2q-76 0 -142 -59.5t-80 -142.5q-3 -18 -3 -36 q1 -69 42 -112.5t107 -44.5h2q75 0 141 59q66 60 80 143z" />
<glyph unicode="p" horiz-adv-x="660" d="M115 -204q-20 4 -20 24v5l75 424l39 219q1 10 9 16q7 4 14 4h5q11 -2 16.5 -10.5t3.5 -18.5l-11 -62q85 89 195 91q90 0 144 -59q57 -57 57 -145q0 -23 -4 -43q-18 -99 -96.5 -167.5t-174.5 -68.5q-88 0 -144 58q-12 10 -30 38l-50 -285q-3 -20 -24 -20h-4zM440 439 q-75 0 -141.5 -58.5t-80.5 -139.5q-3 -20 -3 -36q1 -67 43 -109t109 -43h3q74 0 140 57q67 59 80 139q3 18 3 35q-1 69 -42.5 111.5t-109.5 43.5h-1z" />
<glyph unicode="q" horiz-adv-x="660" d="M430 -206q-20 4 -20 24v5l48 271q-81 -90 -198 -92q-87 0 -143 59q-57 59 -57 144q0 24 4 44q18 99 97 168.5t177 70.5q86 0 143 -59q12 -12 30 -40l14 79q1 10 9 16q7 4 14 4h5q20 -4 20 -24v-5l-115 -645q-1 -9 -8.5 -14.5t-15.5 -5.5h-4zM260 51h3q76 0 142 58 q67 59 81 140q3 20 3 36q-1 67 -43 110t-108 44h-3q-76 0 -142 -57q-67 -59 -81 -141l-24 4l24 -4q-3 -19 -3 -36q1 -67 43 -110t108 -44z" />
<glyph unicode="r" horiz-adv-x="439" d="M115 2q-10 2 -15 10q-5 5 -5 12q0 2 1 5l39 220v1l39 218q2 10 10 16q6 4 14 4h3q10 -1 15.5 -9.5t3.5 -18.5l-17 -99q2 3 7 8q96 119 212 119q10 0 17 -7t7 -17t-7 -17t-17 -7h-2q-79 0 -157 -81q-42 -45 -79 -115l-3 -6l-38 -217q-3 -20 -24 -20q-3 0 -4 1z" />
<glyph unicode="s" horiz-adv-x="492" d="M60 69q-8 8 -8 16t10 18q8 8 18 9t17 -6q60 -58 135 -58q58 0 102 29q42 28 47 62q1 5 1 10q0 26 -25 45q-29 23 -97 36l-1 1q-71 13 -106 40q-38 28 -38 70q0 9 2 19q10 56 69 95q56 35 123 35q30 0 58.5 -10t43 -19t37.5 -26q8 -5 8 -16q0 -10 -7 -17q-7 -8 -17 -10 t-17 3q-66 48 -115 48q-51 0 -93 -27q-37 -25 -42 -56q-1 -4 -1 -9q0 -22 22 -40q30 -22 89 -33l2 -1q74 -13 114 -43q40 -29 40 -73q0 -11 -2 -22q-10 -59 -73 -100q-59 -39 -132 -39q-92 1 -164 69z" />
<glyph unicode="t" horiz-adv-x="400" d="M315 490q10 0 17 -7.5t7 -17.5t-7 -17t-17 -7h-134l-65 -358q-1 -2 -1 -7q2 -25 27 -26q10 0 17.5 -7t7.5 -17t-7.5 -17.5t-17.5 -7.5q-32 0 -54 22t-22 53q0 2 0.5 7t0.5 8l64 350h-64q-10 0 -17.5 7t-7.5 17q0 11 7 18t18 7h73l31 191q4 20 24 20h5q10 -2 15.5 -10 t4.5 -18l-31 -183h126z" />
<glyph unicode="u" horiz-adv-x="613" d="M509 488q10 -2 15 -10q5 -6 5 -13q0 -2 -1 -5l-46 -265q-15 -82 -81 -137.5t-148 -56.5q-73 0 -122 49q-48 48 -48 119q0 17 3 35l47 264q2 10 10 16q7 4 15 4h3q9 -2 14.5 -10t3.5 -18l-46 -265q-2 -18 -2 -26q1 -53 34 -86t88 -34h3q61 0 114 45q55 47 65 110l47 264 q2 10 10 16q6 4 14 4h3z" />
<glyph unicode="v" horiz-adv-x="582" d="M459 483q8 -5 11 -15v-6q0 -7 -3 -12l-261 -436q-1 0 -1 -1l-3 -3v-1l-1 -1q-1 0 -1 -1l-2 -1h-1l-1 -1l-4 -2h-1q-2 -1 -6 -1h-3l-2 1h-1q-4 2 -5 3h-1l-2 2l-1 1l-3 3q-2 2 -2 4q-2 2 -2 4l-107 437q-1 3 -1 5q0 7 3 12q5 9 15 12q3 1 6 1q6 0 12 -4q8 -5 10 -15 l94 -381l231 388q8 13 19 13q7 0 14 -5z" />
<glyph unicode="w" horiz-adv-x="861" d="M735 483q8 -5 11 -15v-6q0 -7 -3 -12l-260 -436q-1 -3 -4 -4l-1 -1v-1l-1 -1q-1 -1 -2 -1t-1 -0.5t-1 -0.5l-4 -2h-1h-4q0 -1 -2 -1q-1 0 -2.5 0.5t-2.5 0.5h-1l-6 3h-1l-2 2l-1 1l-3 3q-2 2 -2 4q-2 4 -2 5l-65 266l-162 -273l-1 -1q0 -1 -3 -3v-1l-1 -1q-1 0 -1 -1 l-2 -1h-1l-1 -1q-1 -1 -4 -1q0 -1 -1 -1h-3l-1 -1h-2h-3l-2 1h-1l-6 3h-1l-2 2l-1 1l-3 3q-2 2 -2 4q-2 4 -2 5l-107 436q-1 4 -1 8q0 15 18 21q3 1 6 1q6 0 12 -4q9 -5 11 -15l94 -381l161 270q6 12 20 12h4q16 0 20 -18l66 -264l231 388q8 13 19 13q6 0 13 -5z" />
<glyph unicode="x" horiz-adv-x="570" d="M472 478q8 10 18 10q8 0 16 -8q9 -9 9 -18q0 -8 -8 -16l-187 -205l113 -203q3 -7 3 -13q0 -12 -12 -20q-6 -3 -12 -3q-14 0 -20 13l-104 190l-176 -195q-8 -8 -18 -8t-16 7q-9 6 -9 17q0 9 7 16l187 205l-113 204q-5 8 -2 17.5t11 14.5q8 4 14 4q11 0 19 -13l104 -190z " />
<glyph unicode="y" horiz-adv-x="588" d="M502 480q6 -6 6 -13q1 -1 1 -3t-1 -4l-75 -426q-17 -95 -94.5 -160.5t-172.5 -66.5q-52 0 -98 23q-14 8 -14 20q0 6 4 14q7 13 18 13q7 0 14 -4q34 -18 76 -18h3q74 0 139 55q65 56 78 132l4 23q-69 -64 -157 -64q-74 0 -123 47q-47 47 -47 119q0 18 3 36l46 266 q2 9 10 15q7 4 15 4h3q20 -5 20 -21q0 -3 -1 -7l-47 -266q-2 -9 -2 -27q1 -52 34.5 -85.5t88.5 -33.5h3q60 0 114 45q54 46 64 110l47 266q1 9 9 15q7 4 14 4h4q9 -2 14 -8z" />
<glyph unicode="z" horiz-adv-x="554" d="M509 456q0 -2 -1 -2l-1 -2q-1 -1 -1 -2l-367 -404h271q10 0 17 -7t7 -17t-7 -17t-17 -7h-325h-1h-1q-1 1 -2 1h-2q-1 1 -3 1q0 1 -2 1q0 1 -2 1q0 1 -2 1q0 1 -0.5 1t-0.5 1l-2 2q-1 0 -1 2l-1 1h-1q0 2 -1 3v2q-1 0 -1 2v2q-1 1 -1 3v2q0 1 1 2v3q1 0 1 2q0 1 1 2 q0 1 0.5 1t0.5 1l2 2v1l367 405h-271q-10 0 -17 6.5t-7 16.5t7 17t17 7h325h2h2q2 0 3 -1h2q1 -1 2 -1q1 -1 2 -1l2 -2l1 -1h1l1 -2l2 -2v-1l1 -1l1 -1v-1v-1l1 -1q0 -2 1 -2v-2v-3v-1v-1v-3q-1 0 -1 -2q0 -1 -1 -2q0 -2 -1 -2z" />
<glyph unicode="{" horiz-adv-x="480" d="M287 -139q-77 17 -114.5 44.5t-40.5 66.5v13q0 34 12 77l22 79q10 36 10 63q0 32 -25 48q-24 16 -74 16q-20 0 -20 12q0 3 2 7q5 19 29 19q73 0 108.5 31.5t54.5 95.5l22 79q12 42 28 71t45 55t74.5 44t111.5 31q3 1 5 1q6 0 9.5 -3.5t3.5 -8.5q0 -2 -1 -5 q-5 -12 -17 -16q-112 -27 -150.5 -61.5t-60.5 -113.5l-22 -75q-18 -63 -54 -96t-91 -48q32 -12 48.5 -27.5t22.5 -44.5q2 -8 2 -18q0 -23 -11 -54l-22 -75q-15 -41 -15 -71q0 -23 9 -39q21 -38 117 -65q11 -5 7 -16q-4 -17 -19 -17q-3 0 -6 1z" />
<glyph unicode="|" horiz-adv-x="286" d="M123 -116l157 890q6 22 26 22q9 0 14 -6q5 -5 5 -11q0 -3 -1 -5l-157 -890q-4 -22 -25 -22q-9 0 -14.5 6.5t-4.5 15.5z" />
<glyph unicode="}" horiz-adv-x="480" d="M318 713q77 -17 114.5 -44.5t40.5 -66.5q1 -6 1 -13q0 -34 -13 -77l-22 -79q-10 -36 -10 -63q0 -32 25 -48q24 -16 74 -16q20 0 20 -12q0 -3 -2 -7q-5 -19 -29 -19q-73 0 -108.5 -31.5t-54.5 -95.5l-22 -79q-12 -42 -28 -71t-45 -55t-74.5 -44t-111.5 -31q-3 -1 -5 -1 q-6 0 -9.5 3.5t-3.5 8.5q0 2 1 5q5 12 17 16q112 27 150.5 61.5t60.5 113.5l22 75q18 63 54 96t91 48q-32 12 -48.5 27.5t-22.5 44.5q-2 8 -2 18q0 23 11 54l22 75q15 41 15 71q0 23 -10 39q-20 38 -116 65q-11 5 -7 16q4 17 19 17q3 0 6 -1z" />
<glyph unicode="~" horiz-adv-x="460" d="M121 254q-7 -14 -18 -14q-18 0 -18 17q0 6 2 12q14 42 32.5 58.5t46.5 16.5q20 0 66 -20.5t62 -20.5t26 8.5t19 29.5q7 14 18 14q18 0 18 -17q0 -6 -2 -12q-14 -42 -32.5 -58.5t-46.5 -16.5q-20 0 -65.5 20.5t-62.5 20.5q-16 0 -26 -8.5t-19 -29.5z" />
<glyph unicode="&#xa2;" horiz-adv-x="581" d="M181 21l31 82q-72 27 -108 96q-26 49 -26 106q0 23 4 48l1 2q19 108 109 187.5t198 79.5h15l25 68q8 20 27 20q12 0 18 -9t1 -22l-24 -64q63 -16 115 -75q7 -9 6 -20q-5 -25 -28 -25q-12 0 -18 8q-45 53 -95 66l-161 -432q18 -3 36 -3q87 0 173 73q11 9 20 9t14.5 -7 t3.5 -16q-1 -9 -10 -16q-99 -89 -212 -89q-26 0 -39 2l-30 -80q-8 -20 -28 -20q-12 0 -17.5 9t-0.5 22zM136 355q-4 -23 -4 -44q0 -44 18 -82q27 -56 83 -80l157 427h-9q-87 0 -157.5 -63.5t-87.5 -155.5v-2z" />
<glyph unicode="&#xa3;" horiz-adv-x="644" d="M67 13q3 11 16 14l81 18l63 260h-66q-10 0 -15.5 7t-3.5 17t11 17t19 7h66l28 118q28 115 109 181q72 58 164 58q122 0 177 -93q4 -7 4 -13q0 -3 -1 -6q-7 -24 -31 -24q-11 0 -18 9q-25 39 -57 59.5t-87 20.5q-69 0 -123 -43q-62 -50 -85 -148l-29 -119h278q10 0 15 -7 t3 -17t-10.5 -17t-18.5 -7h-278l-62 -258h354q10 0 15 -7t3 -17t-11 -16.5t-19 -6.5h-481q-12 0 -10 13z" />
<glyph unicode="&#xa5;" horiz-adv-x="686" d="M213 24l21 143h-154q-12 0 -19 8q-5 6 -5 15v5q2 11 11 19t21 8h154l14 100h-154q-12 0 -19 8t-5 19q2 12 11 20t21 8h124l-163 280q-4 8 -1 18.5t11 15.5q7 6 16 6q1 0 3 -1q10 -1 14 -9l175 -301l264 301q9 11 19 11q8 0 16 -7q7 -5 7 -15.5t-7 -18.5l-248 -280h126 q12 0 19 -8t5 -20q-2 -11 -11 -19t-21 -8h-154l-14 -100h154q12 0 19 -8t5 -19q-2 -12 -11 -20t-21 -8h-154l-21 -143q-2 -10 -10 -17t-18 -7t-16 7t-4 17z" />
<glyph unicode="&#xa9;" horiz-adv-x="830" d="M414 -12q-151 0 -256 105.5t-105 254.5v2q0 149 106 255.5t257 106.5t256 -105.5t105 -254.5v-2q0 -149 -106 -255.5t-257 -106.5zM414 16q141 0 237 97.5t96 236.5v2q0 138 -95 235t-236 97t-237 -97.5t-96 -236.5v-2q0 -138 95 -235t236 -97zM419 166q-77 0 -129.5 55 t-52.5 133v2q0 77 53 133t130 56q72 0 129 -50q9 -7 9 -18q0 -9 -6.5 -15t-15.5 -6q-7 0 -16 7q-49 42 -101 42q-59 0 -98.5 -43.5t-39.5 -104.5v-2q0 -61 40.5 -105t98.5 -44q57 0 106 44q8 5 14 5q8 0 14 -6t6 -14q0 -10 -7 -15q-62 -54 -134 -54z" />
<glyph unicode="&#xad;" horiz-adv-x="408" d="M85 328q-19 0 -19 20q0 18 19 18h213q19 0 19 -18q0 -9 -5.5 -14.5t-13.5 -5.5h-213z" />
<glyph unicode="&#xae;" horiz-adv-x="416" d="M208 360q-73 0 -123.5 51t-50.5 123v1q0 72 51 123.5t123 51.5q73 0 123.5 -51t50.5 -123v-1q0 -72 -51 -123.5t-123 -51.5zM208 379q65 0 109.5 46t44.5 110v1q0 64 -44.5 109.5t-109.5 45.5t-109.5 -46t-44.5 -110v-1q0 -64 44.5 -109.5t109.5 -45.5zM264 435 q4 -10 14 -10h1q1 0 2 0.5t2 0.5q5 2 4 6q0 9 -8 9l-3 5q-3 7 -3 25q0 34 -30 50q-2 0 -3 1q36 17 36 57q0 26 -18 44.5t-44 18.5h-61h-1h-1q-7 0 -7 -8v-204q0 -8 8 -8t8 8v87h53l1 -1q16 -4 26 -11q18 -13 18 -34q0 -25 6 -36zM261 579q0 -19 -13.5 -33t-32.5 -14h-3h-52 v94h54q20 0 33.5 -14t13.5 -33z" />
<glyph unicode="&#xb4;" horiz-adv-x="500" d="M216 592q-14 0 -14 9q-1 6 2 11l49 93q9 18 25 18q14 0 29 -7q16 -9 16 -17q0 -7 -8 -17l-69 -77q-12 -13 -30 -13z" />
<glyph unicode="&#x2000;" horiz-adv-x="398" />
<glyph unicode="&#x2001;" horiz-adv-x="796" />
<glyph unicode="&#x2002;" horiz-adv-x="398" />
<glyph unicode="&#x2003;" horiz-adv-x="796" />
<glyph unicode="&#x2004;" horiz-adv-x="265" />
<glyph unicode="&#x2005;" horiz-adv-x="199" />
<glyph unicode="&#x2006;" horiz-adv-x="132" />
<glyph unicode="&#x2007;" horiz-adv-x="132" />
<glyph unicode="&#x2008;" horiz-adv-x="99" />
<glyph unicode="&#x2009;" horiz-adv-x="159" />
<glyph unicode="&#x200a;" horiz-adv-x="44" />
<glyph unicode="&#x2010;" horiz-adv-x="408" d="M85 328q-19 0 -19 20q0 18 19 18h213q19 0 19 -18q0 -9 -5.5 -14.5t-13.5 -5.5h-213z" />
<glyph unicode="&#x2011;" horiz-adv-x="408" d="M85 328q-19 0 -19 20q0 18 19 18h213q19 0 19 -18q0 -9 -5.5 -14.5t-13.5 -5.5h-213z" />
<glyph unicode="&#x2013;" horiz-adv-x="528" d="M90 271q-11 0 -17 8q-5 6 -4 13q0 14 10 23q9 8 20 8h344q10 0 17 -7q5 -6 5 -14q0 -14 -11 -24q-10 -7 -20 -7h-344z" />
<glyph unicode="&#x2014;" horiz-adv-x="898" d="M89 271q-11 0 -17 8q-3 5 -3 11q0 3 1 7q2 10 11.5 18t20.5 8h714q10 0 16 -7q4 -6 5 -14q0 -2 -1 -5q-3 -11 -13 -18.5t-20 -7.5h-714z" />
<glyph unicode="&#x2018;" horiz-adv-x="230" d="M207 524q1 -2 1 -5q0 -10 -13 -10q-19 0 -60 32q-31 27 -48 104l-5 25q-1 5 -1 9q0 7 5 14q7 10 21 10q13 0 25 -9.5t16 -23.5l4 -21q1 -5 1 -10q0 -19 -21 -25q7 -49 64 -77q9 -5 11 -13z" />
<glyph unicode="&#x2019;" horiz-adv-x="230" d="M61 524q2 8 11 13q57 28 64 77q-21 6 -21 25q0 5 1 10l4 21q4 14 16 23.5t25 9.5q14 0 21 -10q5 -7 5 -14q0 -4 -1 -9l-5 -25q-17 -77 -48 -104q-41 -32 -60 -32q-12 0 -13 10q0 3 1 5z" />
<glyph unicode="&#x201c;" horiz-adv-x="410" d="M387 688q-2 -8 -11 -13q-57 -28 -64 -77q21 -6 21 -25q0 -5 -1 -10l-4 -21q-4 -14 -16 -23.5t-25 -9.5q-14 0 -21.5 10t-3.5 23l5 25q17 77 48 104q41 32 60 32q13 0 13 -10q0 -3 -1 -5zM207 688q-2 -8 -11 -13q-57 -28 -64 -77q21 -6 21 -25q0 -5 -1 -10l-4 -21 q-4 -14 -16 -23.5t-25 -9.5q-14 0 -21 10q-5 7 -5 14q0 4 1 9l5 25q17 77 48 104q41 32 60 32q13 0 13 -10q0 -3 -1 -5z" />
<glyph unicode="&#x201d;" horiz-adv-x="410" d="M241 524q2 8 11 13q57 28 64 77q-21 6 -21 25q0 5 1 10l4 21q4 14 16 23.5t25 9.5q14 0 21 -10q5 -7 5 -14q0 -4 -1 -9l-5 -25q-17 -77 -48 -104q-41 -32 -60 -32q-12 0 -13 10q0 3 1 5zM61 524q2 8 11 13q57 28 64 77q-21 6 -21 25q0 5 1 10l4 21q4 14 16 23.5t25 9.5 q14 0 21 -10q5 -7 5 -14q0 -4 -1 -9l-5 -25q-17 -77 -48 -104q-41 -32 -60 -32q-12 0 -13 10q0 3 1 5z" />
<glyph unicode="&#x2022;" horiz-adv-x="470" d="M224 228q-51 0 -80 36q-23 28 -23 64q0 11 2 23l1 2q9 50 53.5 86.5t93.5 36.5t79 -36q24 -29 24 -65q0 -11 -2 -22l-1 -2q-9 -51 -52.5 -87t-94.5 -36z" />
<glyph unicode="&#x2026;" horiz-adv-x="680" d="M202 58q-5 -25 -24.5 -41.5t-44.5 -16.5t-37 16q-8 12 -8 28q0 7 1 14q4 24 22.5 40.5t43.5 16.5t38 -17q10 -12 10 -29q0 -5 -1 -11zM443 58q-5 -25 -24.5 -41.5t-44.5 -16.5t-37 16q-8 12 -8 28q0 7 1 14q4 24 22.5 40.5t43.5 16.5t38 -17q10 -12 10 -29q0 -5 -1 -11z M684 58q-5 -25 -24.5 -41.5t-44.5 -16.5t-37 16q-8 12 -8 28q0 7 1 14q4 24 22.5 40.5t43.5 16.5t38 -17q10 -12 10 -29q0 -5 -1 -11z" />
<glyph unicode="&#x202f;" horiz-adv-x="159" />
<glyph unicode="&#x205f;" horiz-adv-x="199" />
<glyph unicode="&#x2122;" horiz-adv-x="690" d="M83 400q-11 2 -9 12l47 268h-89q-10 0 -10 11q0 10 10 10h203q10 0 10 -10q0 -11 -10 -11h-93l-47 -271q-2 -9 -11 -9h-1zM513 399q-10 2 -8 12l43 245l-120 -134q-3 -3 -8 -3h-1q-6 0 -9 6l-73 134l-44 -251q-1 -9 -11 -9h-2q-9 1 -9 12l50 280q2 9 11 9q5 0 10 -5 l80 -148l134 149q3 4 8 4h2q11 -2 9 -12l-50 -280q-1 -9 -10 -9h-2z" />
</font>
</defs>
</svg>
